<?xml version="1.0" standalone="no"?>
<!DOCTYPE svg PUBLIC "-//W3C//DTD SVG 1.1//EN" "http://www.w3.org/Graphics/SVG/1.1/DTD/svg11.dtd" >
<!--
2013-9-30: Created.
-->
<svg>
<metadata>
Created by iconfont
</metadata>
<defs>

<font id="iconfont" horiz-adv-x="1024" >
  <font-face
    font-family="iconfont"
    font-weight="500"
    font-stretch="normal"
    units-per-em="1024"
    ascent="896"
    descent="-128"
  />
    <missing-glyph />
    
    <glyph glyph-name="chuansuokuang" unicode="&#58983;" d="M152 663v-558h278v558H152zM408.672 126H172v512h236.672v-512zM640 663v-558h278v558H640z m256.672-537H660v512h236.672v-512zM526.184 562.024l-70.568-53.264 70.568-53.272v35.512h88.2v35.504H526.184zM543.816 195.496l70.568 53.264-70.568 53.272v-35.52H455.616v-35.504h88.2z"  horiz-adv-x="1024" />

    
    <glyph glyph-name="tuozhuai" unicode="&#58934;" d="M1020.928353 368.975789a39.408053 39.408053 0 0 1 3.056594 15.047455c0 5.247922-1.095664 10.342246-3.056594 15.124255a38.445507 38.445507 0 0 1-8.463234 12.620612l-162.542218 162.547338c-15.277852 15.282972-40.042923 15.282972-55.407814 0-15.277852-15.359771-15.277852-40.129962 0-55.412934l95.691374-95.691374h-339.031109V762.334408l95.691374-95.691375a39.044538 39.044538 0 0 1 27.668068-11.443029c10.029931 0 20.059861 3.839943 27.739747 11.443029 15.282972 15.359771 15.282972 40.124842 0 55.407815L539.655524 884.603306c-1.802213 1.879012-4.075459 2.739159-6.189988 4.147138-2.114528 1.413099-3.99354 3.215312-6.425504 4.234177a39.459252 39.459252 0 0 1-30.171711 0c-2.431964-1.018865-4.234177-2.815958-6.425504-4.229057-2.03773-1.413099-4.310976-2.273246-6.195107-4.152258L321.710611 722.050848c-15.282972-15.282972-15.282972-40.048043 0-55.407815a39.208376 39.208376 0 0 1 55.407815 0l95.691374 95.691375V423.211141H133.778692l95.609455 95.691374c15.359771 15.282972 15.359771 40.053163 0 55.412934-15.282972 15.282972-40.048043 15.282972-55.407815 0L11.525153 411.768111A37.273045 37.273045 0 0 1 3.051679 399.147499 38.368708 38.368708 0 0 1 0.000205 384.023244a37.989834 37.989834 0 0 1 3.056594-15.052575 37.58536 37.58536 0 0 1 8.463234-12.697411l162.460299-162.465419a39.029178 39.029178 0 0 1 27.744867-11.44303c10.03505 0 20.064981 3.763144 27.662948 11.44303 15.359771 15.282972 15.359771 40.124842 0 55.407814L133.783811 344.835348h339.031109v-339.051588l-95.691374 95.619695a39.065018 39.065018 0 0 1-55.407815 0c-15.282972-15.282972-15.282972-40.048043 0-55.412934l162.4603-162.470539a39.438772 39.438772 0 0 1 12.851008-8.463234A37.887435 37.887435 0 0 1 511.992576-127.999846c5.094324 0 10.188648 1.018865 14.888738 3.056594a38.629824 38.629824 0 0 1 12.851009 8.463234l162.542218 162.470539c15.282972 15.359771 15.282972 40.129962 0 55.412934-15.359771 15.359771-40.124842 15.359771-55.407815 0l-95.691374-95.619695v339.051588h339.031109l-95.691374-95.619695c-15.277852-15.282972-15.277852-40.124842 0-55.407814a39.029178 39.029178 0 0 1 27.744866-11.44303c10.03505 0 20.064981 3.763144 27.662948 11.44303l162.542218 162.470539a38.773182 38.773182 0 0 1 8.463234 12.697411"  horiz-adv-x="1024" />

    
    <glyph glyph-name="gongshi" unicode="&#59025;" d="M866.508571 119.169515M853.851297 344.280506c5.596462 5.597485 11.192923 11.193947 16.785292 11.193947l78.334089 0c5.592368 0 11.18883 5.590322 11.18883 11.186783l0 89.522919c0 5.593392-5.596462 11.189853-11.18883 11.189853L859.447758 467.374008c-5.596462 0-16.784268-5.596462-16.784268-11.189853l-95.119381-100.709703c-5.592368-5.596462-11.189853-5.596462-11.189853 0l-50.354851 100.709703c-5.597485 5.593392-11.189853 11.189853-16.785292 11.189853L523.738857 467.374008c-5.592368 0-11.18883-5.596462-11.18883-11.189853l0-89.522919c0-5.595438 5.596462-11.186783 11.18883-11.186783l89.522919 0c5.596462 0 11.192923-5.596462 16.784268-11.193947l33.571606-72.738651 0-16.784268-100.711749-117.496018c-5.596462 0-11.18883-5.592368-16.785292-5.592368l-78.329996 0c-5.596462 0-11.192923-5.597485-11.192923-11.192923l0-89.521896c0-5.592368 5.596462-11.189853 11.192923-11.189853l89.518826 0c5.596462 0 16.784268 5.597485 16.784268 11.189853l128.689964 145.474232c5.597485 5.597485 11.189853 5.597485 11.189853 0l72.736605-145.474232c0-5.592368 11.189853-11.189853 16.785292-11.189853l89.521896 0c5.597485 0 11.189853 5.597485 11.189853 11.189853l0 89.521896c0 5.596462-5.592368 11.192923-11.189853 11.192923L859.447758 131.6692c-5.596462 0-11.18883 5.592368-16.784268 11.18883l-55.95336 111.900579 0 16.784268L853.851297 344.280506 853.851297 344.280506zM395.052986 691.17926c-27.977191-22.382776-55.952336-55.95336-72.737628-111.901603l-27.972075-111.903649L132.081713 467.374008c-5.597485 0-11.189853-5.596462-11.189853-11.189853l0-89.522919c0-5.595438 5.591345-11.186783 11.189853-11.186783l134.281309 0L182.437587 19.763504c-16.785292-67.140143-61.545728-55.952336-61.545728-55.952336L64.940546-36.188832l0-111.900579 55.952336 0c44.760436 0 89.522919 5.592368 111.900579 33.570583 27.978215 27.974122 44.763506 78.329996 55.952336 134.282333l83.926458 335.710948 128.688941 0c5.593392 0 11.189853 5.590322 11.189853 11.186783l0 89.522919c0 5.593392-5.596462 11.189853-11.189853 11.189853l-100.710726 0 27.973098 106.308211c5.597485 16.785292 33.570583 44.759413 50.355875 55.952336 61.544705 44.759413 145.475256 16.785292 201.422476 5.591345L680.401919 730.346305C624.453676 741.534112 501.360174 780.70218 395.052986 691.17926L395.052986 691.17926zM395.052986 691.17926"  horiz-adv-x="1024" />

    
    <glyph glyph-name="youjiantou" unicode="&#58882;" d="M288.791335 830.417329l446.41733-446.417329-446.41733-446.417329z"  horiz-adv-x="1024" />

    
    <glyph glyph-name="zuojiantou" unicode="&#58883;" d="M735.208665 830.417329l-446.41733-446.417329 446.41733-446.417329z"  horiz-adv-x="1024" />

    
    <glyph glyph-name="shujuku" unicode="&#58901;" d="M512 96c-247.42 0-448 71.63-448 160v-160c0-88.37 200.58-160 448-160s448 71.63 448 160V256c0-88.37-200.58-160-448-160zM512 288c-247.42 0-448 71.63-448 160v-160c0-88.37 200.58-160 448-160s448 71.63 448 160V448c0-88.37-200.58-160-448-160zM512 480c-247.42 0-448 71.63-448 160v-160c0-88.37 200.58-160 448-160s448 71.63 448 160V640c0-88.37-200.58-160-448-160zM64 672a448 160 0 1 1 896 0 448 160 0 1 1-896 0Z"  horiz-adv-x="1024" />

    
    <glyph glyph-name="clouddev" unicode="&#59677;" d="M763.733333 539.733333c-55.466667 149.333333-221.866667 224-371.2 168.533334-100.266667-38.4-170.666667-128-183.466666-234.666667-115.2-25.6-187.733333-140.8-160-256 21.333333-96 108.8-166.4 206.933333-166.4h68.266667c17.066667 0 32 14.933333 32 32s-14.933333 32-32 32H256c-83.2-4.266667-153.6 57.6-157.866667 140.8-4.266667 83.2 57.6 153.6 140.8 157.866667h6.4c14.933333 0 25.6 12.8 27.733334 27.733333v2.133333c4.266667 123.733333 106.666667 221.866667 232.533333 217.6 96-2.133333 181.333333-68.266667 209.066667-162.133333v-2.133333c2.133333-4.266667 4.266667-10.666667 8.533333-12.8 4.266667-4.266667 10.666667-6.4 17.066667-6.4h2.133333c100.266667 0 181.333333-81.066667 181.333333-181.333334 0-93.866667-72.533333-172.8-166.4-179.2h-55.466666c-17.066667 0-32-12.8-34.133334-29.866666s12.8-32 29.866667-34.133334h53.333333c134.4 6.4 238.933333 119.466667 232.533334 253.866667-6.4 121.6-100.266667 219.733333-219.733334 232.533333zM535.466667 117.33333300000004v51.2h17.066666v21.333334h-66.133333v-21.333334h17.066667v-51.2c-19.2-8.533333-27.733333-32-17.066667-51.2 8.533333-19.2 32-27.733333 51.2-17.066666s27.733333 32 17.066667 51.2c-6.4 8.533333-12.8 14.933333-19.2 17.066666zM708.266667 189.866667h21.333333v-21.333334h-21.333333zM394.666667 189.866667h21.333333v-21.333334h-21.333333zM618.666667 189.866667h21.333333v-21.333334h-21.333333zM663.466667 189.866667h21.333333v-21.333334h-21.333333zM573.866667 189.866667h21.333333v-21.333334h-21.333333zM349.866667 189.866667h21.333333v-21.333334h-21.333333zM439.466667 189.866667h21.333333v-21.333334h-21.333333zM307.2 189.866667h21.333333v-21.333334h-21.333333zM307.2 260.266667h21.333333v-17.066667h-21.333333zM307.2 224h21.333333v-17.066667h-21.333333zM307.2 298.66666699999996h21.333333v-21.333334h-21.333333zM573.866667 298.66666699999996h21.333333v-21.333334h-21.333333zM439.466667 298.66666699999996h21.333333v-21.333334h-21.333333zM708.266667 298.66666699999996h21.333333v-21.333334h-21.333333zM708.266667 224h21.333333v-17.066667h-21.333333zM708.266667 260.266667h21.333333v-17.066667h-21.333333zM552.533333 428.8a38.250667 38.250667 0 1 1-51.2-51.2V298.66666699999996h-17.066666v-21.333334h66.133333v21.333334H533.333333v78.933333c21.333333 8.533333 27.733333 32 19.2 51.2zM381.866667 450.133333c-21.333333 0-38.4-17.066667-38.4-38.4 0-14.933333 8.533333-27.733333 21.333333-34.133333V298.66666699999996h-14.933333v-21.333334h66.133333v21.333334h-19.2v78.933333c12.8 6.4 23.466667 19.2 23.466667 34.133333 2.133333 21.333333-17.066667 38.4-38.4 38.4zM633.6 377.6V298.66666699999996H618.666667v-21.333334H684.8v21.333334h-17.066667v78.933333c19.2 8.533333 27.733333 32 17.066667 51.2-8.533333 19.2-32 27.733333-51.2 17.066667-19.2-8.533333-27.733333-32-17.066667-51.2 2.133333-8.533333 8.533333-14.933333 17.066667-17.066667z"  horiz-adv-x="1024" />

    
    <glyph glyph-name="jianqie" unicode="&#58952;" d="M766.678 753.196L513.55 426.118 246.98 766.628s-82.886-103.05-4.483-212.8c78.405-109.78 271.054-331.542 271.054-331.542L793.554 578.46c0-0.001 44.81 82.886-26.876 174.736zM511.504 290.577c-21.667 0-39.222 17.556-39.222 39.225 0 21.666 17.554 39.223 39.222 39.223 21.669 0 39.225-17.557 39.225-39.223 0-21.669-17.556-39.225-39.225-39.225zM676.606 282.507c-72.071 0-130.497-58.426-130.497-130.497s58.427-130.497 130.497-130.497S807.104 79.94 807.104 152.01s-58.426 130.497-130.498 130.497z m0-196.185c-36.277 0-65.687 29.41-65.687 65.687s29.41 65.687 65.687 65.687 65.688-29.41 65.688-65.687-29.41-65.687-65.688-65.687zM349.46 282.507c-72.072 0-130.498-58.426-130.498-130.497S277.39 21.513 349.46 21.513 479.957 79.94 479.957 152.01 421.53 282.507 349.46 282.507z m0-196.185c-36.278 0-65.687 29.41-65.687 65.687s29.41 65.687 65.687 65.687 65.687-29.41 65.687-65.687-29.41-65.687-65.687-65.687z"  horiz-adv-x="1024" />

    
    <glyph glyph-name="chexiao" unicode="&#59329;" d="M467.314777 831.696462 72.749396 430.462195l394.565381-397.037688L467.314777 285.358399c0 0 458.33987 233.70574 418.85867-349.054861 0 0 309.626873 555.443441-421.881516 664.74687L467.314777 831.696462z"  horiz-adv-x="1024" />

    
    <glyph glyph-name="zhongzuo" unicode="&#59375;" d="M556.6842 831.696462l394.565381-401.234267L556.6842 33.424506 556.6842 285.358399c0 0-458.33987 233.70574-418.85867-349.054861 0 0-309.626873 555.443441 421.881516 664.74687L556.6842 831.696462z"  horiz-adv-x="1024" />

    
    <glyph glyph-name="jiantiebanclipboard46" unicode="&#59035;" d="M214.05696 73.43104l283.42272 0 0-27.88352L214.05696 45.54752c-17.94048 0-32.54272 14.592-32.54272 32.53248L181.51424 728.73984c0 17.94048 14.60224 32.53248 32.54272 32.53248l104.15104 0-3.75808-16.95744c-0.31744-1.42336-0.47104-2.72384-0.47104-3.95264l0-74.36288c0-10.25024 8.33536-18.5856 18.5856-18.5856l255.61088 0c10.25024 0 18.59584 8.33536 18.59584 18.5856l0 74.36288c0 1.23904-0.16384 2.52928-0.48128 3.95264l-3.75808 16.95744 104.16128 0c17.94048 0 32.53248-14.592 32.53248-32.53248l0-298.62912-3.62496 3.15392-24.25856 0L711.34208 728.73984c0 2.56-2.07872 4.64896-4.63872 4.64896l-72.0384 0 0-67.38944c0-25.62048-20.84864-46.47936-46.47936-46.47936L332.57472 619.52c-25.63072 0-46.47936 20.84864-46.47936 46.47936L286.09536 733.3888l-72.02816 0c-2.56 0-4.64896-2.08896-4.64896-4.64896l0-650.65984C209.408 75.52 211.49696 73.43104 214.05696 73.43104zM347.89376 664.87296l224.9728 0c9.04192 0 16.36352 7.3216 16.36352 16.36352l0 65.44384c0 9.04192-7.3216 16.36352-16.36352 16.36352l-61.34784 0c0 27.10528-23.02976 49.08032-51.41504 49.08032-28.40576 0-51.42528-21.97504-51.42528-49.08032l-60.7744 0c-9.04192 0-16.35328-7.3216-16.35328-16.36352l0-65.44384C331.54048 672.2048 338.85184 664.87296 347.89376 664.87296zM842.47552 336.73216l0-356.61824c0-13.37344-10.87488-24.23808-24.22784-24.23808L538.37824-44.12416c-13.3632 0-24.22784 10.87488-24.22784 24.23808L514.1504 390.90176c0 13.37344 10.87488 24.23808 24.22784 24.23808l213.90336 0L842.47552 336.73216zM757.82144 343.01952l50.52416 0-50.52416 43.91936L757.82144 343.01952zM824.82176 325.35552 740.1472 325.35552l0 72.13056L538.37824 397.48608c-3.62496 0-6.57408-2.94912-6.57408-6.58432l0-410.78784c0-3.62496 2.93888-6.58432 6.57408-6.58432l279.86944 0c3.62496 0 6.57408 2.94912 6.57408 6.58432L824.82176 325.35552zM561.28512 241.44896c0-7.31136 5.94944-13.24032 13.24032-13.24032l207.5648 0c7.30112 0 13.25056 5.92896 13.25056 13.24032 0 7.3216-5.94944 13.2608-13.25056 13.2608l-207.5648 0C567.2448 254.70976 561.28512 248.77056 561.28512 241.44896zM782.09024 176.68096l-207.5648 0c-7.29088 0-13.24032-5.92896-13.24032-13.25056 0-7.31136 5.94944-13.24032 13.24032-13.24032l207.5648 0c7.30112 0 13.25056 5.92896 13.25056 13.24032C795.3408 170.752 789.39136 176.68096 782.09024 176.68096zM782.09024 102.67648l-207.5648 0c-7.29088 0-13.24032-5.9392-13.24032-13.25056s5.94944-13.24032 13.24032-13.24032l207.5648 0c7.30112 0 13.25056 5.92896 13.25056 13.24032S789.39136 102.67648 782.09024 102.67648z"  horiz-adv-x="1024" />

    
    <glyph glyph-name="niantie" unicode="&#58903;" d="M304.738028 343.684806M729.544153 511.153982M595.52788 637.723655M631.156332 674.846134l-95.67913 0 0 47.839565c0 26.314319-21.535479 47.839565-47.839565 47.839565l-95.67913 0c-26.302039 0-47.839565-21.525246-47.839565-47.839565l0-47.839565-95.67913 0 0-108.98211 382.715495 0L631.155309 674.846134zM487.638661 674.846134l-95.67913 0 0 47.746444c0.023536 0.023536 0.047072 0.046049 0.094144 0.093121l95.515401 0c0.023536-0.023536 0.069585-0.047072 0.094144-0.093121L487.638661 674.846134zM726.835462 489.116059L726.835462 650.926352c0 13.151531-10.766205 23.919782-23.919782 23.919782l-47.839565 0 0-47.839565 23.919782 0 0-137.89051-273.990235 0 0-371.715977L200.601272 117.400083l0 509.606487 23.919782 0 0 47.839565-47.839565 0c-13.151531 0-23.919782-10.768251-23.919782-23.919782l0-557.446052c0-13.151531 10.768251-23.919782 23.919782-23.919782l228.324172 0 0-64.46829 326.178851 0 139.169643 132.0065 0 352.017332L726.835462 489.116059zM731.951993 72.73993l0 62.568011 70.75446 0L731.951993 72.73993zM822.514591 183.147506l-138.402163 0 0-130.215714-231.267201 0 0 388.344702 369.669364 0L822.514591 183.147506zM515.266905 338.690048l245.593488 0 0-48.095391-245.593488 0 0 48.095391ZM515.266905 203.61363l124.528178 0 0-48.095391-124.528178 0 0 48.095391Z"  horiz-adv-x="1024" />

    
    <glyph glyph-name="theme" unicode="&#58991;" d="M512 830.6c-327 0-448-285.2-448-445.1s116.3-448 438.5-448c0 0 80.1-1.4 80.1 70.6s-36 49-36 100.8c0 51.9 36 74.9 53.3 74.9 17.3 0 131.1-8.6 194.5 15.9 63.3 24.4 165.6 102.2 165.6 234.7 0 116.7-121 396.2-448 396.2zM238.9 384c-43 0-77.8 34.8-77.8 77.8s34.8 77.8 77.8 77.8 77.8-34.8 77.8-77.8c-0.1-43-34.9-77.8-77.8-77.8zM385.6 576.5c-43 0-77.8 34.8-77.8 77.8s34.8 77.8 77.8 77.8c42.9 0 77.8-34.8 77.8-77.8s-34.8-77.8-77.8-77.8zM635.1 576.5c-42.9 0-77.8 34.8-77.8 77.8s34.8 77.8 77.8 77.8c42.9 0 77.8-34.8 77.8-77.8s-34.8-77.8-77.8-77.8zM783.2 384c-42.9 0-77.8 34.8-77.8 77.8s34.8 77.8 77.8 77.8 77.8-34.8 77.8-77.8c0.1-43-34.8-77.8-77.8-77.8z"  horiz-adv-x="1024" />

    
    <glyph glyph-name="baocun" unicode="&#58945;" d="M112 784.5v-685.7c0-62.9 51.4-114.3 114.3-114.3H912v800H112z m628.6-742.9H512V155.9H397.7v-114.3H283.4V270.2h457.1v-228.6z m57.1 400c0-28.6-28.6-57.1-57.1-57.1H283.4c-28.6 0-57.1 28.6-57.1 57.1V727.4h571.4v-285.8z m0 0"  horiz-adv-x="1024" />

    
    <glyph glyph-name="qingkong" unicode="&#59718;" d="M274.56 97.002667l19.434667 25.130666-33.792-68.565333a18.133333 18.133333 0 0 1 11.562666-25.536l59.733334-16a18.133333 18.133333 0 0 1 17.28 4.48c20.522667 19.818667 35.626667 35.989333 45.290666 48.469333l19.456 25.130667-33.813333-68.565333a18.133333 18.133333 0 0 1 11.562667-25.536l84.48-22.634667a18.133333 18.133333 0 0 1 17.28 4.48c20.522667 19.84 35.626667 35.989333 45.269333 48.469333l19.456 25.130667-33.813333-68.565333A18.133333 18.133333 0 0 1 535.530667-42.666667l72.106666-19.328a18.133333 18.133333 0 0 1 17.28 4.48c20.522667 19.84 35.626667 36.010667 45.269334 48.490667l19.456 25.130667-33.813334-68.586667a18.133333 18.133333 0 0 1 11.584-25.514667l86.421334-23.338666 3.84 0.213333c13.269333 0.704 29.056 5.034667 43.84 12.8 29.781333 15.701333 48.170667 43.2 52.181333 78.250667 2.133333 18.517333 4.778667 38.549333 8.405333 63.530666 1.642667 11.221333 2.944 20.010667 6.229334 41.834667 11.050667 73.322667 14.634667 101.034667 17.130666 133.674667l0.938667 12.373333 2.837333 2.922667 12.330667 1.344a41.813333 41.813333 0 0 1 24.810667 11.221333c10.730667 10.24 14.805333 25.386667 11.093333 42.197333l-37.546667 171.584c-3.029333 13.696-11.264 27.946667-23.146666 39.829334-11.648 11.626667-25.92 20.138667-39.893334 23.893333L723.626667 564.693333l-2.261334 3.925334L774.250667 765.866667c8.32 31.061333-11.754667 63.744-44.970667 72.64l-79.509333 21.312c-33.194667 8.896-66.922667-9.365333-75.264-40.426667l-52.842667-197.269333-3.925333-2.261334-118.101334 31.637334c-13.994667 3.754667-30.634667 3.498667-46.506666-0.746667-16.256-4.352-30.506667-12.586667-39.957334-22.933333l-118.314666-129.792c-11.605333-12.714667-15.658667-27.84-11.52-42.090667 4.16-14.229333 15.850667-25.194667 32.896-30.528l13.610666-4.266667 2.133334-3.882666-3.626667-13.802667c-21.12-79.850667-52.885333-136.917333-85.717333-150.890667-47.530667-20.202667-72.938667-49.429333-78.421334-85.034666-5.034667-32.682667 9.28-67.114667 37.589334-91.541334l22.037333-8.341333 74.666667-20.010667a42.666667 42.666667 0 0 1 41.216 11.050667c15.274667 15.274667 26.88 28.032 34.837333 38.293333z m551.381333 396.565333c14.144-3.797333 29.952-19.2 32.768-32l34.56-157.781333a10.666667 10.666667 0 0 0-13.184-12.586667L240.64 462.506667a10.666667 10.666667 0 0 0-5.12 17.493333l108.8 119.36c8.832 9.685333 30.229333 15.146667 44.373333 11.349333l141.333334-37.866666a21.333333 21.333333 0 0 1 26.133333 15.082666l58.304 217.642667a21.333333 21.333333 0 0 0 26.133333 15.082667l77.056-20.650667a21.333333 21.333333 0 0 0 15.082667-26.133333l-58.325333-217.642667a21.333333 21.333333 0 0 1 15.082666-26.112l136.448-36.565333zM315.456 194.432c-33.664-45.141333-64.597333-79.082667-92.8-101.802667l-5.909333-4.778666-2.837334-0.597334-88.106666 24.106667-2.922667 3.2c-13.034667 14.165333-19.370667 31.04-16.981333 46.592 3.285333 21.333333 22.058667 39.338667 53.205333 52.586667 31.722667 13.482667 59.818667 47.104 82.922667 99.904 10.026667 22.954667 18.88 48.725333 26.389333 76.586666l3.882667 14.4 3.904 2.261334 566.165333-151.701334 2.346667-3.306666-0.789334-12.224c-1.984-30.592-30.336-229.397333-32.128-244.906667-2.346667-20.416-11.306667-34.986667-27.605333-44.394667a73.237333 73.237333 0 0 0-21.397333-8.106666l-5.013334-0.725334-60.373333 16.170667 11.242667 20.288c8.277333 14.976 22.656 43.84 43.093333 86.613333a21.12 21.12 0 0 1-9.962667 28.16l-3.136 1.493334a21.333333 21.333333 0 0 1-26.261333-6.485334c-33.642667-45.056-64.533333-78.912-92.672-101.546666l-5.909333-4.757334-2.837334-0.597333-52.544 14.08 11.114667 20.266667c3.562667 6.485333 7.04 13.013333 10.453333 19.626666 7.04 13.504 17.898667 35.797333 32.597334 66.816a21.290667 21.290667 0 0 1-9.984 28.309334l-3.029334 1.450666a21.333333 21.333333 0 0 1-26.368-6.442666c-33.6-45.013333-64.469333-78.826667-92.608-101.482667l-5.909333-4.757333-2.837333-0.597334-52.138667 13.973334 11.114667 20.266666c3.242667 5.888 6.72 12.416 10.453333 19.626667 6.997333 13.461333 17.962667 35.946667 32.896 67.434667a20.970667 20.970667 0 0 1-10.112 28.010666l-3.328 1.536a21.333333 21.333333 0 0 1-26.069333-6.613333c-33.642667-45.056-64.554667-78.976-92.778667-101.696l-5.909333-4.757333-2.837334-0.597334-32.64 8.746667 11.093334 20.245333c3.541333 6.506667 7.04 13.034667 10.453333 19.626667 6.976 13.482667 17.941333 35.968 32.874667 67.456a21.056 21.056 0 0 1-10.069334 28.074667l-3.242666 1.514666a21.333333 21.333333 0 0 1-26.154667-6.549333z"  horiz-adv-x="1024" />

    
    <glyph glyph-name="yulan" unicode="&#58984;" d="M897.28 810.666667h-750.933333c-28.16 0-51.2-23.04-51.2-51.2v-750.933334c0-28.16 23.04-51.2 51.2-51.2h276.906666c18.773333 0 34.133333 15.36 34.133334 34.133334s-15.36 34.133333-34.133334 34.133333H163.413333V742.4h716.8v-275.626667c0-18.773333 15.36-34.133333 34.133334-34.133333s34.133333 15.36 34.133333 34.133333V759.466667c0 28.16-22.613333 51.2-51.2 51.2zM649.813333 580.266667h-324.266666c-18.773333 0-34.133333 15.36-34.133334 34.133333s15.36 34.133333 34.133334 34.133333h324.266666c18.773333 0 34.133333-15.36 34.133334-34.133333s-14.933333-34.133333-34.133334-34.133333zM564.48 443.733333h-238.933333c-18.773333 0-34.133333 15.36-34.133334 34.133334s15.36 34.133333 34.133334 34.133333h238.933333c18.773333 0 34.133333-15.36 34.133333-34.133333s-14.933333-34.133333-34.133333-34.133334zM479.146667 307.2h-153.6c-18.773333 0-34.133333 15.36-34.133334 34.133333s15.36 34.133333 34.133334 34.133334h153.6c18.773333 0 34.133333-15.36 34.133333-34.133334s-14.933333-34.133333-34.133333-34.133333zM724.48 352c-94.293333 0-170.666667-76.373333-170.666667-170.666667s76.373333-170.666667 170.666667-170.666666 170.666667 76.373333 170.666667 170.666666-76.373333 170.666667-170.666667 170.666667z m0-273.066667c-56.32 0-102.4 46.08-102.4 102.4s46.08 102.4 102.4 102.4 102.4-46.08 102.4-102.4-45.653333-102.4-102.4-102.4zM938.666667-32.853333c-13.226667-13.226667-34.986667-13.226667-48.213334 0l-72.533333 72.533333c-13.226667 13.226667-13.226667 34.986667 0 48.213333 13.226667 13.226667 34.986667 13.226667 48.213333 0l72.533334-72.533333c13.226667-13.226667 13.226667-34.56 0-48.213333z"  horiz-adv-x="1024" />

    
    <glyph glyph-name="-biaodanguanli" unicode="&#59026;" d="M921.6 896H102.4a102.4 102.4 0 0 1-102.4-102.4v-819.2a102.4 102.4 0 0 1 102.4-102.4h819.2a102.4 102.4 0 0 1 102.4 102.4V793.6a102.4 102.4 0 0 1-102.4 102.4z m-365.056-724.48H322.56a76.8 76.8 0 0 0-76.8 76.8V594.432a77.312 77.312 0 0 0 76.8 76.8h346.112a76.8 76.8 0 0 0 76.8-76.8v-252.416h-38.4V594.432a38.912 38.912 0 0 1-38.4 38.4H322.56a38.912 38.912 0 0 1-38.4-38.4v-346.112a38.4 38.4 0 0 1 38.4-38.4h233.984zM380.416 517.12a19.456 19.456 0 0 0-19.456 20.48 18.944 18.944 0 0 0 19.456 18.944h230.4a18.944 18.944 0 0 0 19.456-18.944 19.456 19.456 0 0 0-19.456-19.456z m173.056-95.744a19.456 19.456 0 0 0-19.456-19.456h-153.6a19.456 19.456 0 0 0-19.456 19.456 18.944 18.944 0 0 0 19.456 18.944h153.6a18.944 18.944 0 0 0 19.456-18.944z m18.944-134.656H380.416a18.944 18.944 0 0 0-19.456 18.944 19.456 19.456 0 0 0 19.456 19.456h192a19.456 19.456 0 0 0 19.456-19.456 18.944 18.944 0 0 0-19.456-18.944z m233.984-117.248h-76.8v-76.8a18.944 18.944 0 0 0-19.456-18.944 18.432 18.432 0 0 0-18.944 18.944v76.8H614.4a19.456 19.456 0 0 0 0 38.912h76.8v76.8a18.432 18.432 0 0 0 18.944 18.944 18.944 18.944 0 0 0 19.456-18.944v-76.8h76.8a19.456 19.456 0 0 0 0-38.912z"  horiz-adv-x="1024" />

    
    <glyph glyph-name="-biaodanguanli-copy" unicode="&#60438;" d="M1042.24287605 1046.80359506H-18.24287605a132.56071902 132.56071902 0 0 1-132.56071901-132.56071901v-1060.4857521a132.56071902 132.56071902 0 0 1 132.56071901-132.56071901h1060.4857521a132.56071902 132.56071902 0 0 1 132.56071901 132.56071901V914.24287605a132.56071902 132.56071902 0 0 1-132.56071901 132.56071901z m-472.57896328-937.86708701H266.76266983a99.42053925 99.42053925 0 0 0-99.42053926 99.42053926V656.41227757a100.08334285 100.08334285 0 0 0 99.42053926 99.42053926h448.05523026a99.42053925 99.42053925 0 0 0 99.42053926-99.42053926v-326.76217236h-49.71026963V656.41227757a50.37307323 50.37307323 0 0 1-49.71026963 49.71026963H266.76266983a50.37307323 50.37307323 0 0 1-49.71026964-49.71026963v-448.05523026a49.71026963 49.71026963 0 0 1 49.71026964-49.71026962h302.90124294zM341.65947607 556.32893472a25.18653662 25.18653662 0 0 0-25.1865366 26.5121438 24.52373301 24.52373301 0 0 0 25.1865366 24.52373302h298.26161778a24.52373301 24.52373301 0 0 0 25.1865366-24.52373302 25.18653662 25.18653662 0 0 0-25.1865366-25.18653662z m224.02761513-123.94427229a25.18653662 25.18653662 0 0 0-25.18653662-25.1865366h-198.84107851a25.18653662 25.18653662 0 0 0-25.1865366 25.1865366 24.52373301 24.52373301 0 0 0 25.1865366 24.52373304h198.84107851a24.52373301 24.52373301 0 0 0 25.18653662-24.52373304z m24.52373301-174.31734549H341.65947607a24.52373301 24.52373301 0 0 0-25.1865366 24.52373301 25.18653662 25.18653662 0 0 0 25.1865366 25.18653662h248.55134814a25.18653662 25.18653662 0 0 0 25.18653662-25.18653662 24.52373301 24.52373301 0 0 0-25.18653662-24.52373301z m302.90124296-151.78202327h-99.42053927v-99.42053927a24.52373301 24.52373301 0 0 0-25.18653661-24.52373301 23.86092942 23.86092942 0 0 0-24.52373302 24.52373301v99.42053927H644.56071902a25.18653662 25.18653662 0 0 0 0 50.37307323h99.42053925v99.42053925a23.86092942 23.86092942 0 0 0 24.52373302 24.52373302 24.52373301 24.52373301 0 0 0 25.18653661-24.52373302v-99.42053925h99.42053927a25.18653662 25.18653662 0 0 0 0-50.37307323z"  horiz-adv-x="1024" />

    
    <glyph glyph-name="zhuzhuangtu" unicode="&#58929;" d="M290.15 392.123l-149.461 2.114v-333.16H290.15zM497.316 668.934l-149.462 3.883v-611.74h149.462zM704.481 527.532l-149.461 2.98v-469.435h149.461zM911.647 257.995l-149.462 1.258v-198.176h149.462zM102.139 10.635V797.848H65.063v-830.142h895.855v42.929z"  horiz-adv-x="1024" />

    
    <glyph glyph-name="cs-zxt-1" unicode="&#58943;" d="M0.1 851.4h51.1v-935H0.1zM1024.064-32.452v-51.1H0.064v51.1zM1009.1 672.4l-20.7 20.7L862.6 566l-233 233-20.6-20.7-206.6-206.6-124 124-20.7 20.7L51.2 509.8l-0.1-41.4L257.7 675l124-123.9 20.7-20.7 227.2 227.3 234.1-234zM241.1 640.2h30.7v-81.8h-30.7zM241.1 527.7h30.7v-81.8h-30.7zM241.1 415.2h30.7v-81.8h-30.7zM241.1 302.70000000000005h30.7v-81.8h-30.7zM241.1 190.20000000000005h30.7v-81.8h-30.7zM241.1 77.70000000000005h30.7v-81.8h-30.7zM613.1 722h30.7v-81.8h-30.7zM613.1 609.5h30.7v-81.8h-30.7zM613.1 497h30.7v-81.8h-30.7zM613.1 384.5h30.7v-81.8h-30.7zM613.1 272h30.7v-81.8h-30.7zM613.1 159.5h30.7v-81.8h-30.7zM613.1 47h30.7v-81.8h-30.7zM387.3 507.3H418v-81.8h-30.7zM387.3 394.8H418V313h-30.7zM387.3 282.29999999999995H418v-81.8h-30.7zM387.3 169.79999999999995H418V88h-30.7zM387.3 57.299999999999955H418v-81.8h-30.7zM848.6 507.3h30.7v-81.8h-30.7zM848.6 394.8h30.7V313h-30.7zM848.6 282.29999999999995h30.7v-81.8h-30.7zM848.6 169.79999999999995h30.7V88h-30.7zM848.6 57.299999999999955h30.7v-81.8h-30.7z"  horiz-adv-x="1024" />

    
    <glyph glyph-name="tubiao" unicode="&#58951;" d="M594.29 714.39v-279.63h274c-2.94 74.61-29 144-79.26 199.74-41.74 46.26-112.71 85-183.18 90.58a10.72 10.72 0 0 1-11.56-10.69zM914.61 409.28H552.9a13.39 13.39 0 0 0-13.39 13.39V784.38a13.38 13.38 0 0 0 13.39 13.39A375.16 375.16 0 0 0 928 422.67a13.4 13.4 0 0 0-13.39-13.39z m-348.33 26.78H901c-3.42 87-40.08 171.24-101.75 232.91s-145.97 98.34-232.97 101.76zM848.2 349.24a13.39 13.39 0 1 1-26.77 0c0-192.07-156.27-348.32-348.33-348.32S124.78 157.17 124.78 349.24 281 697.57 473.1 697.57h0.17a13.39 13.39 0 1 1 0 26.77h-0.17C266.27 724.34 98 556.07 98 349.24s168.27-375.1 375.1-375.1 375.1 168.28 375.1 375.1z"  horiz-adv-x="1024" />

    
    <glyph glyph-name="tubiaozhuzhuangtu" unicode="&#58881;" d="M99.58015625 748.60588542c0 1.22878125 0.46846875 2.456625 1.40540625 3.39459375 0.937875 0.9369375 2.16571875 1.40540625 3.39459375 1.40540625h30.36768c1.22878125 0 2.456625-0.46846875 3.39459375-1.40540625 0.9369375-0.937875 1.40540625-2.16571875 1.40540625-3.39459375v-741.26784h807.88128c1.22784375 0 2.4575625-0.46846875 3.3935625-1.4064375 0.937875-0.9369375 1.4064375-2.16571875 1.4064375-3.3935625v-30.36768c0-1.22784375-0.46846875-2.4575625-1.4064375-3.3935625-0.9369375-0.937875-2.16571875-1.4064375-3.3935625-1.4064375H99.58016V748.6058666700001zM192.34898634 592.76062744c0 3.03668118 1.15801907 6.0734396 3.47575665 8.38947774 2.31688786 2.31688786 5.35356904 3.47575664 8.38947772 3.47575664H312.21393233c3.03668118 0 6.0734396-1.15801907 8.38947773-3.47575664 2.31688786-2.31688786 3.47575664-5.35356904 3.47575664-8.38947773v-558.96486329H192.34896162V592.7606119899999zM586.35308197 428.09805649c0 3.03668118 1.15801907 6.0734396 3.47575664 8.38947773 2.31688786 2.31688786 5.35356904 3.47575664 8.38947773 3.47575665h107.99973633c3.03668118 0 6.0734396-1.15801907 8.38947773-3.47575665 2.31688786-2.31688786 3.47575664-5.35356904 3.47575664-8.38947773v-394.3030957H586.35306961V428.0980534zM348.10204064 278.15258282c0 3.23912659 1.23612671 6.47833557 3.70747376 8.94877625s5.71047364 3.70747375 8.94877624 3.70747375h115.19971875c3.23912659 0 6.47833557-1.23612671 8.94877625-3.70747375s3.70747375-5.71047364 3.70747375-8.94877625v-244.9490625H348.10202087V278.15257293zM745.67490069 98.7721421c0 3.03668118 1.15886879 6.0734396 3.47575665 8.38947774s5.35356904 3.47575664 8.38947773 3.47575664h107.99973632c3.03668118 0 6.0734396-1.15886879 8.38947773-3.47575664s3.47575664-5.35356904 3.47575665-8.38947774v-64.97797851H745.67486979V98.77214519999995z"  horiz-adv-x="1024" />

    
    <glyph glyph-name="tianjia" unicode="&#58910;" d="M463.36 432.64v389.12a48.64 48.64 0 0 0 97.28 0v-389.12h389.12a48.64 48.64 0 0 0 0-97.28h-389.12v-389.12a48.64 48.64 0 0 0-97.28 0v389.12h-389.12a48.64 48.64 0 0 0 0 97.28h389.12z"  horiz-adv-x="1024" />

    
    <glyph glyph-name="guanbi" unicode="&#58888;" d="M583.168 372.224L958.464 747.52c18.944 18.944 18.944 50.176 0 69.12l-2.048 2.048c-18.944 18.944-50.176 18.944-69.12 0L512 442.88 136.704 818.688c-18.944 18.944-50.176 18.944-69.12 0l-2.048-2.048c-19.456-18.944-19.456-50.176 0-69.12l375.296-375.296L65.536-3.072c-18.944-18.944-18.944-50.176 0-69.12l2.048-2.048c18.944-18.944 50.176-18.944 69.12 0L512 301.056 887.296-74.24c18.944-18.944 50.176-18.944 69.12 0l2.048 2.048c18.944 18.944 18.944 50.176 0 69.12L583.168 372.224z"  horiz-adv-x="1024" />

    
    <glyph glyph-name="xiangxia" unicode="&#58972;" d="M504.581774-127.997114a90.175871 90.175871 0 0 0-64.125064 26.050807L90.774721 247.735682a40.383761 40.383761 0 0 0 57.111385 57.111385l349.681989-350.683943c4.007816-4.007816 12.023449-4.007816 17.03322 1.001954l361.705439 362.707393a40.383761 40.383761 0 1 0 57.111385-57.111385L570.710746-100.944353a93.181733 93.181733 0 0 0-66.128972-27.052761zM511.595452-110.963894a40.078165 40.078165 0 0 0-40.078164 40.078165V855.921835a40.078165 40.078165 0 1 0 80.156329 0v-926.807564a40.078165 40.078165 0 0 0-40.078165-40.078165z"  horiz-adv-x="1024" />

    
    <glyph glyph-name="xiangshang" unicode="&#58973;" d="M119.232877 437.103718a40.078278 40.078278 0 0 0-28.054795 68.133073L452.88454 867.945205c36.07045 36.07045 94.183953 37.072407 130.254403 1.001957l349.682975-349.682974a40.383875 40.383875 0 1 0-57.111546-57.111546L526.027397 812.837573c-4.007828 4.007828-12.023483 4.007828-17.033268-1.001957L147.287671 449.127202a40.078278 40.078278 0 0 0-28.054794-12.023484zM512-128a40.078278 40.078278 0 0 0-40.078278 40.078278V837.886497a40.078278 40.078278 0 1 0 80.156556 0v-925.808219a40.078278 40.078278 0 0 0-40.078278-40.078278z"  horiz-adv-x="1024" />

    
    <glyph glyph-name="fuzhi" unicode="&#58955;" d="M703.89 576l0.11-0.11v-511.78l-0.11-0.11H192.11l-0.11 0.11V575.89l0.11 0.11h511.78m0.11 64H192a64.19 64.19 0 0 1-64-64v-512a64.19 64.19 0 0 1 64-64h512a64.19 64.19 0 0 1 64 64V576a64.19 64.19 0 0 1-64 64zM640 448H256v-64h384v64zM640 256H256v-64h384v64zM832 768H320a64.19 64.19 0 0 1-64-64v-32h64v31.89l0.11 0.11h511.78l0.11-0.11v-511.78l-0.11-0.11H800v-64h32a64.19 64.19 0 0 1 64 64V704a64.19 64.19 0 0 1-64 64z"  horiz-adv-x="1024" />

    
    <glyph glyph-name="shanchu" unicode="&#58904;" d="M790.864 577.904c0.72-8.832 1.136-17.808 1.136-26.896v-444.16c0-73.04-35.824-138.8-112-138.8h-336c-76.176 0-112 65.776-112 138.8v444.16a235.104 235.104 0 0 0 1.68 26.896H176v111.04l168 0.128V710.4c0 49.472 45.84 89.6 102.4 89.6h131.2c56.56 0 102.4-40.112 102.4-89.6v-20.592l168-0.736v-111.168h-57.136zM624 710.4c0 18.464-21.248 34.064-46.4 34.064h-131.2c-25.152 0-46.4-15.6-46.4-34.064v-21.344h224V710.4z m112-159.408a190.4 190.4 0 0 1-1.872 26.896H289.888a188.544 188.544 0 0 1-1.888-26.88v-444.16c0-42.592 10.72-83.28 56-83.28h336c45.344 0 56 40.704 56 83.28v444.16z m-112-28.336h56v-443.728H624V522.672z m-140 0h56v-443.728h-56V522.672z m-140 0H400v-443.728h-56V522.672z"  horiz-adv-x="1024" />

    
    <glyph glyph-name="changyong" unicode="&#59115;" d="M366.3 748.8H159c-41.2 0-74.6-33.6-74.6-74.9v-208.1c0-41.3 33.5-74.9 74.6-74.9h282v283c-0.1 41.3-33.6 74.9-74.7 74.9zM84.3 219v-208.1c0-41.3 33.5-74.9 74.6-74.9h207.3c41.2 0 74.6 33.6 74.6 74.9v283H159c-41.2 0-74.7-33.6-74.7-74.9z m833.4 443.9L770.6 810c-29.2 29.2-76.6 29.3-105.7 0.2L518.2 663.6c-29.1-29.1-29-76.5 0.2-105.7l200.1-200.1 199.4 199.4c29.1 29 29 76.5-0.2 105.7zM718.3 463.5L571.2 610.6l146.6 146.6L865 610.1 718.3 463.5zM822 293.9H540v-283c0-41.3 33.5-74.9 74.6-74.9H822c41.2 0 74.6 33.6 74.6 74.9V219c0 41.3-33.5 74.9-74.6 74.9z"  horiz-adv-x="1024" />

    
    <glyph glyph-name="iconfont" unicode="&#58941;" d="M877.362268 106.178507 877.362268 591.608362c0 18.165732-13.540388 32.848129-30.264281 32.848129l-673.514557 0c-16.723893 0-30.264281-14.682397-30.264281-32.848129L143.31915 106.178507l-99.257631 0 0-40.153512c0-18.165732 13.55983-32.848129 30.264281-32.848129l99.259678 0 673.514557 0 102.555747 0c16.723893 0 30.283724 14.682397 30.283724 32.848129L979.939505 106.178507 877.362268 106.178507 877.362268 106.178507zM573.98882 92.392526 450.010157 92.392526l0 21.315468 123.978662 0L573.98882 92.392526zM815.09204 146.087449 205.607798 146.087449 205.607798 556.736133l609.485265 0L815.09204 146.087449 815.09204 146.087449z"  horiz-adv-x="1024" />

    
    <glyph glyph-name="pingban" unicode="&#58939;" d="M801.792 820.224H246.784c-39.936 0-72.704-32.256-72.704-72.192V25.6c0-39.936 32.768-73.728 72.704-73.728h554.496c39.936 0 72.704 33.792 72.704 73.728V748.032c0.512 39.424-32.256 72.192-72.192 72.192M517.12-17.92c-24.064 0-43.52 19.456-43.52 43.52s19.456 43.52 43.52 43.52 43.52-19.456 43.52-43.52-19.456-43.52-43.52-43.52m304.64 125.952H226.816v660.48h595.456l-0.512-660.48z"  horiz-adv-x="1024" />

    
    <glyph glyph-name="shouji" unicode="&#58938;" d="M796.009412-128H227.990588C193.566118-128 165.647059-99.328 165.647059-64V832C165.647059 867.358118 200.493176 896 234.917647 896h561.091765C830.433882 896 858.352941 867.358118 858.352941 832v-896C858.352941-99.328 830.433882-128 796.009412-128z m-284.009412 32.015059c17.197176 0 31.171765 14.305882 31.171765 31.984941 0 17.679059-13.974588 32.015059-31.171765 32.015059-17.227294 0-31.171765-14.336-31.171765-32.015059s13.944471-31.984941 31.171765-31.984941z m140.257882 927.984941H371.712a15.781647 15.781647 0 0 1-15.570824-15.992471c0-8.824471 6.957176-15.992471 15.570824-15.99247h280.545882a15.811765 15.811765 0 0 1 15.600942 15.99247 15.811765 15.811765 0 0 1-15.600942 15.992471zM227.990588 736.015059L234.917647 13.251765h554.164706l6.927059 722.763294H227.990588z"  horiz-adv-x="1024" />

    
    <glyph glyph-name="diannao" unicode="&#58979;" d="M491.5 44.5v83c0 12.15 9.85 22 22 22s22-9.85 22-22v-83h234c12.15 0 22-9.85 22-22s-9.85-22-22-22h-514c-12.15 0-22 9.85-22 22s9.85 22 22 22h236zM128.097 768h767.806c22.288 0 30.37-2.32 38.518-6.678 8.148-4.358 14.543-10.753 18.9-18.9 4.358-8.149 6.679-16.231 6.679-38.52v-511.805c0-22.288-2.32-30.37-6.678-38.518-4.358-8.148-10.753-14.543-18.9-18.9-8.149-4.358-16.231-6.679-38.52-6.679H128.098c-22.288 0-30.37 2.32-38.518 6.678-8.148 4.358-14.543 10.753-18.9 18.9C66.32 161.728 64 169.81 64 192.099V703.902c0 22.288 2.32 30.37 6.678 38.518 4.358 8.148 10.753 14.543 18.9 18.9 8.149 4.358 16.231 6.679 38.52 6.679z m0.489-554c-11.37 0-20.586-9.85-20.586-22s9.217-22 20.586-22h766.828c11.37 0 20.586 9.85 20.586 22s-9.217 22-20.586 22H596c-11.046 0-20 8.954-20 20v2c0 11.046 8.954 20 20 20h299.903c11.1 0 20.097 7.629 20.097 17.039V706.96c0 9.41-8.998 17.039-20.097 17.039H128.097c-11.1 0-20.097-7.629-20.097-17.039V273.04c0-9.41 8.998-17.039 20.097-17.039H428c11.046 0 20-8.954 20-20v-2c0-11.046-8.954-20-20-20H128.586zM512 210m-18 0a18 18 0 1 1 36 0 18 18 0 1 1-36 0Z"  horiz-adv-x="1024" />

    
    <glyph glyph-name="hbiaoqian" unicode="&#59009;" d="M350.944907 431.973618c6.27082-0.425695 12.397355-1.198292 18.524912-1.203408 95.314833-0.076748 190.628642-0.079818 285.943474-0.032746 20.243043 0.010233 20.448728 0.1361 20.2543 20.788465-0.525979 56.111972-1.240247 112.221898-1.89721 168.331823-0.023536 2.044566-0.128937 4.101411-0.38067 6.126534-3.615341 29.012777-9.836019 35.265178-37.652552 38.058804-5.415336 0.544399-10.901281 0.862647-16.196891 2.057869-17.697057 3.992941-22.658046 11.465123-20.670785 30.30112 1.862417 17.653055 9.888208 25.043373 27.157523 24.866341 51.113121-0.522909 102.225219-1.2689 153.339364-1.521656 18.334577-0.091074 36.672224 1.325182 55.011918 1.407046 15.192004 0.068562 22.234397-8.689916 24.077372-28.40391 1.281179-13.70514-5.365194-23.321148-19.049868-26.160823-7.210215-1.496074-14.683421-1.636267-22.047132-2.264577-22.112624-1.88493-29.910217-8.697079-33.617655-31.478945-1.959631-12.040221-3.247974-24.362874-3.27458-36.56273-0.24457-110.239753-0.216941-220.48053-0.100284-330.720284 0.036839-34.8139 0.548492-69.626777 0.921999-104.439654 0.061398-5.728468 0.104377-11.517311 0.88823-17.165961 4.228301-30.443359 9.343809-35.300994 38.754652-38.017872 4.643764-0.428765 9.242502-1.462305 13.846356-2.311649 24.026206-4.437056 33.004695-24.701588 21.112853-47.26549-4.790096-9.087982-12.744255-9.851369-21.201881-9.589402-29.647227 0.917906-59.295478 2.708692-88.939635 2.62171-39.414685-0.115634-78.825276-1.720178-118.238938-2.610454-21.794375-0.49221-34.296107 15.231913-27.7756 37.331233 2.018983 6.840802 9.564843 13.594623 16.163121 16.797571 7.843642 3.807722 17.525142 3.193739 26.180266 5.463432 24.542976 6.437619 29.964452 13.154601 31.624255 39.46585 1.080611 17.143449 1.826602 34.338063 1.917676 51.515281 0.25378 47.947012 0.099261 95.89607 0.082888 143.845129-0.007163 19.946284-0.461511 20.654412-19.594267 20.672832-95.704712 0.094144-191.410448 0.047072-287.11516 0.024559-3.121084-0.001023-6.27696-0.016373-9.353019-0.485047-2.982938-0.454348-5.884011-1.503237-9.717316-2.53166 0-28.621874 0-56.852846 0-85.083817 0-34.010605-0.00614-68.02121 0.00921-102.031814 0.002047-3.686972-0.049119-7.387247 0.226151-11.056823 4.055362-53.930283 10.670014-53.296857 54.317093-56.828286 27.943422-2.260483 39.417755-22.177092 25.548886-46.845934-5.200442-9.250688-13.069667-10.583033-22.064528-10.301623-32.381501 1.01205-64.766073 2.692319-97.148597 2.657526-36.285414-0.039909-72.569806-1.656733-108.854197-2.610454-20.144806-0.529049-27.79709 6.065136-29.68509 25.663496-1.641383 17.037025 6.445806 27.240411 24.572652 30.995945 0.381693 0.078795 0.780783 0.062422 1.163499 0.1361 39.662325 7.636934 45.670156 14.389732 46.230927 57.387012 0.63138 48.342008 0.147356 96.700389 0.147356 145.051607 0.001023 95.888907 0.159636 191.778838-0.183172 287.665699-0.046049 12.995989-1.851161 26.134217-4.173043 38.940894-4.464685 24.62484-10.275018 29.540803-34.125215 31.497365-6.216585 0.51063-12.536524 0.283456-18.651802 1.36816-19.844977 3.51915-25.843598 10.561543-24.077372 27.320229 2.459005 23.336498 8.289804 28.869514 29.429263 28.468378 46.440705-0.881067 92.882434-2.02717 139.327232-2.293229 22.61302-0.12996 45.231157 1.699712 67.855434 2.214435 15.942087 0.36225 23.415292-7.486508 25.269523-25.396413 1.866511-18.037818-3.709485-26.764574-19.946284-29.816073-9.53926-1.792832-19.267832-2.464121-28.898167-3.744277-12.977569-1.724271-20.22974-9.930163-22.353101-23.01825-1.694595-10.44898-3.617387-21.035082-3.674693-31.571043-0.305969-56.138578-0.063445-112.281249 0.026606-168.421874C350.21529 437.244668 350.6021 435.258431 350.944907 431.973618z"  horiz-adv-x="1024" />

    
    <glyph glyph-name="duanlaPbiaoqian" unicode="&#59158;" d="M0 831.997v-895.994h1024V831.997H0z m960.007-832h-896v640h896v-640z m-598.63 169.382a31.882 31.882 0 0 1 22.617-9.382c8.198 0 16.384 3.129 22.63 9.382 12.5 12.5 12.5 32.742 0 45.248l-105.37 105.376 105.37 105.376c12.5 12.493 12.5 32.75 0 45.248-12.5 12.499-32.755 12.499-45.248 0l-128-128c-12.498-12.499-12.498-32.748 0-45.254l128-127.994z m256.005 0c6.24-6.253 14.432-9.382 22.625-9.382 8.179 0 16.378 3.129 22.63 9.382l128 127.994c12.493 12.506 12.493 32.755 0 45.254l-128 128c-12.518 12.499-32.755 12.499-45.255 0s-12.5-32.755 0-45.248l105.37-105.376-105.37-105.376c-12.498-12.506-12.498-32.75 0-45.248z"  horiz-adv-x="1024" />

    
    <glyph glyph-name="span" unicode="&#58880;" d="M382.141 469.769L201.877 576.458V635.54l180.264 106.201v-69.58l-125.737-65.43 125.737-67.871v-69.091zM464.944 422.894l65.11 370.117h37.847l-65.828-370.117h-37.129zM650.704 469.524v69.092l125.916 67.383-125.916 66.65v68.604l180.443-106.201v-58.594L650.704 469.524zM96.941 159.985l42.51 6.836c4.781-45.738 20.448-68.604 46.994-68.604 13.153 0 23.497 4.677 31.03 14.03 7.534 9.354 11.3 20.946 11.3 34.778 0 8.134-1.317 15.046-3.946 20.741-2.632 5.691-6.637 10.368-12.018 14.03-5.381 3.662-18.416 9.796-39.103 18.409-18.536 7.634-32.106 15.923-40.716 24.868-8.609 8.942-15.457 20.691-20.538 35.248-5.084 14.557-7.623 30.209-7.623 46.959 0 19.517 3.257 37.079 9.775 52.692 6.516 15.61 15.516 27.401 26.995 35.37 11.479 7.969 25.649 11.955 42.51 11.955 25.35 0 45.139-9.361 59.371-28.076 14.229-18.719 21.763-45.494 22.601-80.322l-43.586-3.174c-1.914 19.203-6.04 32.631-12.376 40.283-6.339 7.648-15.367 11.475-27.084 11.475-11.72 0-20.748-3.326-27.084-9.979-6.339-6.652-9.506-14.931-9.506-24.825 0-9.735 2.875-17.93 8.629-24.582 5.751-6.653 18.971-13.97 39.654-21.946 21.877-8.633 37.687-17.708 47.426-27.229 9.739-9.521 17.177-21.805 22.317-36.857 5.14-15.053 7.71-33.317 7.71-54.798 0-31.083-7.026-57.198-21.076-78.354-14.053-21.156-36.025-31.73-65.918-31.73-52.854 0-82.27 40.931-88.248 122.802zM316.121 43.286v357.91h69.953c26.067 0 43.107-1.709 51.12-5.127 12.794-5.535 23.346-17.334 31.658-35.4 8.31-18.066 12.466-41.344 12.466-69.824 0-25.879-3.587-47.569-10.762-65.063-7.175-17.498-16.143-29.785-26.905-36.865s-29.298-10.62-55.604-10.62h-28.52v-135.01h-43.406z m43.407 297.363v-101.807h24.091c16.18 0 27.177 1.549 32.99 4.65 5.813 3.098 10.577 8.686 14.293 16.762 3.716 8.075 5.574 17.986 5.574 29.735 0 11.91-1.92 21.942-5.754 30.102-3.836 8.156-8.57 13.623-14.204 16.396-5.633 2.772-17.558 4.161-35.775 4.161h-21.215zM696.911 43.286h-47.193l-18.884 81.055h-86.315l-17.827-81.055h-46.277l83.963 357.91h46.106l86.427-357.91z m-80.094 141.602L587.049 317.7l-29.212-132.813h58.98zM727.575 43.286v357.91h42.331l88.248-239.014V401.196h40.537v-357.91h-43.766l-86.813 233.398v-233.398h-40.537z"  horiz-adv-x="1024" />

    
    <glyph glyph-name="label" unicode="&#59101;" d="M563.2 588.8c-44.8-44.8-44.8-108.8 0-153.6 19.2-19.2 44.8-32 76.8-32h25.6c19.2 6.4 38.4 12.8 51.2 32 12.8 12.8 25.6 32 32 51.2 6.4 38.4 0 76.8-32 102.4-44.8 38.4-115.2 38.4-153.6 0z m121.6-89.6c0-6.4-6.4-19.2-12.8-25.6-6.4-6.4-12.8-12.8-25.6-12.8-19.2-6.4-32 0-44.8 12.8-19.2 19.2-19.2 51.2 0 70.4 12.8 12.8 25.6 12.8 38.4 12.8s25.6-6.4 32-12.8c12.8-12.8 19.2-25.6 12.8-44.8z m211.2-38.4l-12.8 204.8c-6.4 51.2-44.8 89.6-89.6 89.6L588.8 768c-38.4 0-76.8-12.8-102.4-38.4l-320-320c-51.2-51.2-51.2-128 0-179.2l192-192c19.2-25.6 51.2-38.4 89.6-38.4s64 12.8 89.6 38.4l320 320c25.6 25.6 38.4 64 38.4 102.4z m-76.8-57.6l-320-320c-25.6-25.6-70.4-25.6-96 0l-192 192c-25.6 25.6-25.6 70.4 0 96l320 320c12.8 12.8 25.6 19.2 44.8 19.2h6.4l204.8-12.8c19.2 0 32-19.2 38.4-38.4l12.8-204.8c0-19.2-6.4-38.4-19.2-51.2z"  horiz-adv-x="1024" />

    
    <glyph glyph-name="iconjichuzujian" unicode="&#58928;" d="M554.666667 597.333333h298.666666v-554.666666H298.666667v298.666666h85.333333v-213.333333h384V512h-213.333333V597.333333zM170.666667 725.333333h341.333333v-341.333333H170.666667V725.333333z m85.333333-85.333333v-170.666667h170.666667V640H256z"  horiz-adv-x="1024" />

    
    <glyph glyph-name="tupian1" unicode="&#58935;" d="M800.37502003 672.37502003H223.62497997C178.2902832 672.37502003 141.21142578 635.2961626 141.21142578 589.9614658400001v-411.99535132C141.21142578 132.7038374 178.2902832 95.62497997000003 223.62497997 95.62497997000003h576.75004005c45.33469677 0 82.41355419 37.07885742 82.4135542 82.41355419V589.9614658400001c0 45.33469677-37.07885742 82.41355419-82.4135542 82.41355419z m-576.75004005-41.2067771h576.75004005c22.73976803 0 41.20677711-18.46700907 41.20677709-41.20677709v-341.67587758L697.39428711 392.54551793 563.49036646 258.64159727000003 327.32990933 494.8020544 182.41820288 349.81792831999996V589.9614658400001c0 22.73976803 18.46700907 41.20677711 41.20677709 41.20677709zM182.41820288 178.03853416000004V291.59253502L327.32990933 436.57666111l299.74490404-299.74490404H223.62497997c-22.73976803 0-41.20677711 18.46700907-41.20677709 41.20677709z m617.95681714-41.20677709H685.30020667l-92.69714357 92.69714355L697.39428711 334.24770498l144.18751001-144.18751001v-12.09408045c0-22.66734839-18.46700907-41.13435745-41.20677709-41.13435744zM635.6203313 425.20677711c45.47953606 0 82.41355419 36.86159849 82.41355417 82.41355418s-36.86159849 82.41355419-82.41355418 82.41355418-82.41355419-36.86159849-82.41355419-82.41355418 36.86159849-82.41355419 82.41355419-82.41355419z m-1e-8 123.62033127c22.73976803 0 41.20677711-18.46700907 41.20677709-41.20677709s-18.46700907-41.20677711-41.20677709-41.2067771-41.20677711 18.46700907-41.2067771 41.2067771 18.46700907 41.20677711 41.2067771 41.20677709z"  horiz-adv-x="1024" />

    
    <glyph glyph-name="chaolianjie" unicode="&#58944;" d="M356.1 401.6l-86.5-86.5c-31.8-30.7-44.5-76.2-33.4-119 11.2-42.8 44.6-76.2 87.4-87.4s88.2 1.6 119 33.4l86.5 86.5c19.1 19.1 50.1 19.1 69.2 0s19.1-50.1 0-69.2l-86.5-86.5c-86-86-225.4-86-311.4 0-86 86-86 225.4 0 311.4l86.4 86.5c19.1 19.1 50.1 19.1 69.2 0s19.1-50.1 0.1-69.2zM667.5 367l86.5 86.5c31.8 30.7 44.6 76.2 33.4 119-11.2 42.8-44.6 76.2-87.4 87.4-42.8 11.2-88.2-1.6-119-33.4L494.4 540c-19.3-18.1-49.4-17.6-68.1 1.1-18.7 18.7-19.2 48.8-1.1 68.1l86.5 86.5c86 86 225.4 86 311.4 0 86-86 86-225.4 0-311.4l-86.5-86.5c-12.3-12.7-30.5-17.8-47.6-13.3s-30.5 17.8-34.9 34.9c-4.5 17.1 0.6 35.2 13.4 47.6z m-33.3 127c19.1-19.1 19.1-50.1 0-69.2L495.8 286.4c-19.1-19.1-50.1-19.1-69.2 0s-19.1 50.1 0 69.2L565 494c19.1 19.1 50.1 19.1 69.2 0z m0 0"  horiz-adv-x="1024" />

    
    <glyph glyph-name="fuxuankuang" unicode="&#59081;" d="M860.16 779.946667H197.973333c-40.96 0-75.093333-34.133333-75.093333-75.093334v-669.013333c0-40.96 34.133333-75.093333 75.093333-75.093333h669.013334c40.96 0 75.093333 34.133333 75.093333 75.093333V704.853333c-6.826667 40.96-40.96 75.093333-81.92 75.093334z m27.306667-737.28c0-13.653333-13.653333-27.306667-27.306667-27.306667H197.973333c-13.653333 0-27.306667 13.653333-27.306666 27.306667V704.853333c0 13.653333 13.653333 27.306667 27.306666 27.306667h669.013334c13.653333 0 27.306667-13.653333 27.306666-27.306667v-662.186666H887.466667zM471.04 158.72000000000003c-13.653333 0-27.306667 6.826667-34.133333 13.653333L273.066667 336.21333300000003c-20.48 20.48-20.48 54.613333 0 75.093334 20.48 20.48 54.613333 20.48 75.093333 0l157.013333-157.013334c20.48-20.48 20.48-54.613333 0-75.093333-6.826667-13.653333-20.48-20.48-34.133333-20.48zM471.04 158.72000000000003c-13.653333 0-27.306667 6.826667-34.133333 13.653333-27.306667 27.306667-27.306667 54.613333 0 75.093334L750.933333 568.3199999999999c20.48 20.48 54.613333 20.48 75.093334 0 20.48-20.48 20.48-54.613333 0-75.093333l-320.853334-320.853334c-6.826667-6.826667-20.48-13.653333-34.133333-13.653333z"  horiz-adv-x="1024" />

    
    <glyph glyph-name="form" unicode="&#58893;" d="M849.281-104.71000000000004H182.857c-48.983 0-88.856 39.852-88.856 88.856V694.999c0 48.994 39.873 88.856 88.856 88.856h111.289v-44.428H182.857c-24.514 0-44.428-19.926-44.428-44.428v-710.852c0-24.492 19.915-44.429 44.428-44.429h666.424c24.491 0 44.428 19.937 44.428 44.429V694.999c0 24.502-19.937 44.428-44.428 44.428H738.339v44.428H849.28c49.005 0 88.856-39.862 88.856-88.856v-710.852c0.001-49.005-39.851-88.857-88.855-88.857zM671.568 650.5699999999999H360.569c-48.983 0-88.856 39.86-88.856 88.856 0 48.994 39.873 88.856 88.856 88.856h29.201c21.52 27.063 69.572 44.428 126.299 44.428 56.707 0 104.737-17.366 126.301-44.428h29.198c49.005 0 88.856-39.862 88.856-88.856 0-48.996-39.851-88.856-88.856-88.856zM360.569 783.854c-24.514 0-44.428-19.926-44.428-44.428 0-24.503 19.915-44.428 44.428-44.428h310.999c24.492 0 44.429 19.925 44.429 44.428 0 24.502-19.937 44.428-44.429 44.428h-56.164l-5.75 13.504c-5.53 12.962-41.131 30.924-93.585 30.924-52.498 0-88.074-17.951-93.585-30.903l-5.728-13.525h-56.187zM293.928 495.071h444.281c12.279 0 22.215-9.947 22.215-22.215 0-12.266-9.936-22.213-22.215-22.213H293.928c-12.28 0-22.215 9.947-22.215 22.213 0 12.268 9.935 22.215 22.215 22.215z m0-177.713h444.281c12.279 0 22.215-9.936 22.215-22.216 0-12.276-9.936-22.213-22.215-22.213H293.928c-12.28 0-22.215 9.937-22.215 22.213 0 12.281 9.935 22.216 22.215 22.216z m0-177.712h444.281c12.279 0 22.215-9.936 22.215-22.215s-9.936-22.215-22.215-22.215H293.928c-12.28 0-22.215 9.936-22.215 22.215s9.935 22.215 22.215 22.215z"  horiz-adv-x="1024" />

    
    <glyph glyph-name="cols" unicode="&#58912;" d="M128 448h384V832H128zM192 768h256v-256H192z m384 64v-384h384V832z m320-320h-256V768h256zM192 384h64v-384H192z m192 0h64v-384h-64z m256 0h64v-384h-64z m192 0h64v-384h-64z"  horiz-adv-x="1024" />

    
    <glyph glyph-name="danxuankuangxuanzhong" unicode="&#59121;" d="M544 768C314.24 768 128 581.76 128 352 128 122.24 314.24-64 544-64c229.76 0 416 186.24 416 416C960 581.76 773.76 768 544 768zM544 0C349.44 0 192 157.44 192 352 192 546.56 349.44 704 544 704 738.56 704 896 546.56 896 352 896 157.44 738.56 0 544 0zM544 512C455.68 512 384 440.32 384 352 384 263.68 455.68 192 544 192 632.32 192 704 263.68 704 352 704 440.32 632.32 512 544 512z"  horiz-adv-x="1024" />

    
    <glyph glyph-name="weibiaoti2010101" unicode="&#58940;" d="M352 672C371.2 672 384 684.8 384 704L384 800C384 819.2 371.2 832 352 832 332.8 832 320 819.2 320 800L320 704C320 684.8 332.8 672 352 672zM704 672c19.2 0 32 12.8 32 32L736 800C736 819.2 723.2 832 704 832c-19.2 0-32-12.8-32-32L672 704C672 684.8 684.8 672 704 672zM864 32c0-19.2-12.8-32-32-32L192 0c-19.2 0-32 12.8-32 32L160 512l704 0L864 32zM844.8 768l-44.8 0C780.8 768 768 755.2 768 736 768 716.8 780.8 704 800 704l44.8 0c6.4 0 19.2-12.8 19.2-32L864 576l-704 0L160 672C160 691.2 172.8 704 192 704l64 0c19.2 0 32 12.8 32 32C288 755.2 275.2 768 256 768L192 768C140.8 768 96 723.2 96 672l0-640C96-19.2 140.8-64 192-64l640 0c51.2 0 96 44.8 96 96l0 640C928 723.2 889.6 768 844.8 768zM448 704l160 0C627.2 704 640 716.8 640 736 640 755.2 627.2 768 608 768L448 768C428.8 768 416 755.2 416 736 416 716.8 428.8 704 448 704zM256 128l512 0c19.2 0 32 12.8 32 32 0 19.2-12.8 32-32 32L256 192c-19.2 0-32-12.8-32-32C224 140.8 236.8 128 256 128zM256 320l512 0c19.2 0 32 12.8 32 32C800 371.2 787.2 384 768 384L256 384C236.8 384 224 371.2 224 352 224 332.8 236.8 320 256 320z"  horiz-adv-x="1024" />

    
    <glyph glyph-name="fuwenben" unicode="&#59364;" d="M925.597853 59.096189c0.367367 2.783393 0.847298 5.528923 0.847298 8.40953L926.44515 715.908342c19.034519 11.079336 31.976272 31.470759 31.976272 55.082526 0 35.32146-28.633131 63.956637-63.953567 63.956637-23.611767 0-44.007283-12.941753-55.082526-31.980365L182.108594 802.96714c-11.076266 19.038612-31.470759 31.980365-55.082526 31.980365-35.31839 0-63.953567-28.635177-63.953567-63.956637 0-23.611767 12.9438-44.00319 31.976272-55.082526l0-648.402623c0-2.880607 0.479931-5.627161 0.851391-8.40953-19.4991-10.954493-32.827663-31.586392-32.827663-55.543014 0-35.317367 28.635177-63.953567 63.953567-63.953567 35.32146 0 63.953567 28.635177 63.953567 63.953567l639.536698 0c0-35.317367 28.631084-63.953567 63.953567-63.953567 35.319413 0 63.953567 28.635177 63.953567 63.953567C958.421422 27.509796 945.093882 48.140673 925.597853 59.096189zM862.491583 67.505719 159.00234 67.505719 159.00234 715.908342c9.596566 5.586229 17.524119 13.513782 23.110347 23.110347l657.273664 0c5.582135-9.596566 13.509688-17.524119 23.106254-23.110347L862.492606 67.505719zM670.62781 643.084757 350.86202 643.084757 318.885747 643.084757 286.908452 643.084757 286.908452 515.181715 350.86202 515.181715 350.86202 579.135282 478.768131 579.135282 478.768131 227.389126 414.815587 227.389126 414.815587 163.435559 606.675266 163.435559 606.675266 227.389126 542.721699 227.389126 542.721699 579.135282 670.62781 579.135282 670.62781 515.181715 734.585471 515.181715 734.585471 643.084757 702.609199 643.084757Z"  horiz-adv-x="1024" />

    
    <glyph glyph-name="pingfen" unicode="&#58896;" d="M541.93664 55.23968l219.4688-132.38272c39.08096-23.59808 87.42912 11.41248 77.0304 55.91552l-58.05568 249.63072c-4.29056 18.6368 2.02752 38.17472 16.49152 50.7136l193.82784 167.84896c34.56512 29.93664 16.1536 86.63552-29.36832 90.58816l-255.49824 21.9136c-19.08736 1.58208-35.69152 13.66528-43.14624 31.2832l-99.7376 235.39712c-17.8432 42.02496-77.37344 42.02496-95.10912 0l-99.7376-235.39712c-7.45472-17.61792-24.05888-29.70112-43.14624-31.2832L69.2224 537.66656C23.7056 533.71392 5.29408 477.00992 39.85408 447.0784l193.82784-167.84896c14.45888-12.53888 20.7872-32.08192 16.49152-50.7136l-58.0608-249.63072c-10.38848-44.50304 37.95456-79.5136 77.03552-55.91552l219.47392 132.27008C505.00096 65.07008 525.55776 65.07008 541.93664 55.23968L541.93664 55.23968z"  horiz-adv-x="1024" />

    
    <glyph glyph-name="xuanxiangqia" unicode="&#59039;" d="M483.2 416l-89.6-224h41.6l22.4 57.6h99.2l19.2-57.6h41.6l-89.6 224h-44.8zM467.2 278.4l38.4 99.2 38.4-99.2h-76.8zM192 384h76.8v-192h38.4v192h80v32h-195.2zM784 310.4c12.8 3.2 22.4 9.6 28.8 19.2s9.6 19.2 9.6 32c0 16-6.4 32-19.2 41.6-12.8 9.6-32 16-54.4 16h-108.8v-224h108.8c25.6 0 44.8 3.2 57.6 12.8 16 9.6 25.6 28.8 25.6 51.2 0 16-3.2 28.8-12.8 35.2-6.4 6.4-19.2 12.8-35.2 16zM678.4 387.2h60.8c16 0 28.8-3.2 35.2-6.4 6.4-3.2 9.6-12.8 9.6-22.4 0-12.8-3.2-19.2-9.6-25.6-6.4-6.4-19.2-6.4-35.2-6.4h-60.8v60.8zM777.6 227.2c-9.6-3.2-19.2-6.4-35.2-6.4h-64v70.4h64c16 0 28.8-3.2 38.4-9.6 6.4-6.4 12.8-16 12.8-28.8 0-9.6-6.4-19.2-16-25.6zM96 768h384c19.2 0 32 12.8 32 32s-16 32-32 32h-384c-19.2 0-32-12.8-32-32s16-32 32-32zM896 704h-768c-35.2 0-64-28.8-64-64v-640c0-35.2 28.8-64 64-64h768c35.2 0 64 28.8 64 64v640c0 35.2-28.8 64-64 64zM896 32c0-16-12.8-32-32-32h-704c-19.2 0-32 16-32 32v576c0 16 12.8 32 32 32h704c19.2 0 32-16 32-32v-576z"  horiz-adv-x="1024" />

    
    <glyph glyph-name="danhangwenben" unicode="&#59110;" d="M118.784 168.96h778.24v430.08h-778.24v-430.08z m-40.96 471.04h860.16v-512h-860.16v512z m116.736-153.6v-204.8c0-12.288 8.192-20.48 20.48-20.48s20.48 8.192 20.48 20.48v204.8c0 12.288-8.192 20.48-20.48 20.48s-20.48-8.192-20.48-20.48z"  horiz-adv-x="1024" />

    
    <glyph glyph-name="duohangwenben" unicode="&#59111;" d="M118.784 117.76h778.24v532.48h-778.24v-532.48z m-40.96 573.44h860.16v-614.4h-860.16v614.4z m778.24-409.6l-122.88-122.88h122.88v122.88zM194.56 537.6v-204.8c0-12.288 8.192-20.48 20.48-20.48s20.48 8.192 20.48 20.48v204.8c0 12.288-8.192 20.48-20.48 20.48s-20.48-8.192-20.48-20.48z"  horiz-adv-x="1024" />

    
    <glyph glyph-name="extend" unicode="&#59424;" d="M534.4-9.600000000000023h-44.8l-70.4 70.4 22.4 54.4c32 0 57.6 25.6 57.6 57.6s-25.6 57.6-57.6 57.6-57.6-25.6-57.6-57.6l-54.4-22.4-195.2 195.2v44.8l128 128 54.4-19.2c3.2-28.8 28.8-48 57.6-48 32 0 57.6 25.6 57.6 57.6 0 28.8-22.4 54.4-48 57.6l-19.2 54.4 128 128h44.8l32-32c19.2 38.4 60.8 64 108.8 64 67.2 0 121.6-54.4 121.6-121.6 0-48-25.6-86.4-64-108.8l156.8-156.8v-44.8L800 256c32-22.4 54.4-60.8 54.4-102.4 0-67.2-54.4-121.6-121.6-121.6-41.6 0-80 22.4-102.4 54.4l-96-96z m-32 76.8l9.6-9.6 105.6 105.6 54.4-19.2c3.2-28.8 28.8-51.2 57.6-51.2 32 0 57.6 25.6 57.6 57.6 0 28.8-22.4 54.4-51.2 57.6l-19.2 54.4 105.6 105.6-176 176 25.6 54.4h3.2c32 0 57.6 25.6 57.6 57.6s-25.6 57.6-57.6 57.6-57.6-25.6-57.6-57.6v-3.2l-54.4-25.6L512 678.4 441.6 608c32-22.4 51.2-57.6 51.2-99.2 0-67.2-54.4-121.6-121.6-121.6-41.6 0-76.8 19.2-99.2 51.2l-70.4-70.4 134.4-134.4c22.4 35.2 60.8 60.8 105.6 60.8 67.2 0 121.6-54.4 121.6-121.6 0-44.8-25.6-83.2-60.8-105.6z"  horiz-adv-x="1024" />

    
    <glyph glyph-name="kaiguan" unicode="&#58995;" d="M366 601.496c-132 0-240-107.104-240-238s108-238 240-238h304c132 0 240 107.104 240 238s-108 238-240 238h-304z m308-442.16c-111.28 0-201.504 91.408-201.504 204.168s90.224 204.16 201.504 204.16 201.504-91.408 201.504-204.168-90.224-204.16-201.504-204.16z"  horiz-adv-x="1024" />

    
    <glyph glyph-name="lunboxiaoguo" unicode="&#58997;" d="M753.671 659.728H280.995c-21.754 0-39.39-17.635-39.39-39.39v-472.673c0-21.756 17.636-39.392 39.39-39.392h472.676c21.753 0 39.39 17.637 39.39 39.392V620.338c0 21.755-17.637 39.39-39.39 39.39zM280.995 147.665v1.476c0.519-0.503 1.043-0.997 1.573-1.476h-1.573z m472.676 0L600.566 309.17l-75.603-65.663-113.452 105.047-113.445-105.047-17.07-19.498v396.33H753.67v-472.674z m-124.737 237.47c40.652 0 73.638 33.044 73.638 73.751 0 40.74-32.986 73.767-73.638 73.767-40.672 0-73.64-33.026-73.64-73.767 0-40.711 32.968-73.751 73.64-73.751zM218.384 566.581v39.39h-49.157c-21.755 0-39.39-17.635-39.39-39.39V203.69c0-21.756 17.635-39.392 39.39-39.392h49.157V203.69h-49.157V566.58h49.157zM815.088 203.438v-39.39h49.158c21.754 0 39.39 17.636 39.39 39.39V566.331c0 21.754-17.636 39.391-39.39 39.391h-49.158v-39.391h49.158v-362.893h-49.158z"  horiz-adv-x="1024" />

    
    <glyph glyph-name="xialakuang" unicode="&#59006;" d="M107.336 599.336V194h833.328V599.336H107.336z m812-384.008H128.664V578h790.672v-362.672zM684 578v-362.664h235.336V578H684z m117.664-220.2l-71.08 92.944h142.168l-71.088-92.944z"  horiz-adv-x="1024" />

    
    <glyph glyph-name="Group-" unicode="&#59030;" d="M768 544a224 224 0 0 0 0-448h-32a32 32 0 0 0 0 64h32a160 160 0 0 1 0 320 147.2 147.2 0 0 1-27.84-2.56 32 32 0 0 0-38.08 27.52 192 192 0 0 1-380.16 0 32 32 0 0 0-38.08-27.52A147.2 147.2 0 0 1 256 480a160 160 0 0 1 0-320h32a32 32 0 0 0 0-64H256a224 224 0 0 0 0 448h8.32a256 256 0 0 0 495.36 0zM544 0a32 32 0 0 0-64 0v288a32 32 0 0 0 64 0zM424 138.88a32 32 0 1 0-48 42.24l112 128a32 32 0 0 0 48 0l112-128a32 32 0 0 0-48-42.24L512 239.36z"  horiz-adv-x="1024" />

    
    <glyph glyph-name="riqi" unicode="&#58937;" d="M819.6 693.4H700.7v63.8c0 17.6-14.3 31.9-31.9 31.9-17.6 0-31.9-14.3-31.9-31.9v-63.8h-255v63.8c0 17.6-14.3 31.9-31.9 31.9s-31.9-14.3-31.9-31.9v-63.8H199.3C140.7 693.4 93 645.7 93 587.1v-504.8C93 23.7 140.7-24 199.3-24h620.3c58.6 0 106.3 47.7 106.3 106.3V587.1c0 58.6-47.7 106.3-106.3 106.3z m42.5-611.1c0-23.4-19.1-42.5-42.5-42.5H199.3c-23.4 0-42.5 19.1-42.5 42.5V587.1c0 23.4 19.1 42.5 42.5 42.5h118.8v-47.8c0-17.6 14.3-31.9 31.9-31.9s31.9 14.3 31.9 31.9v47.8H637v-47.8c0-17.6 14.3-31.9 31.9-31.9 17.6 0 31.9 14.3 31.9 31.9v47.8h118.8c23.4 0 42.5-19.1 42.5-42.5v-504.8zM340.1 486.1H238c-12.9 0-23.4-10.5-23.4-23.4v-87.6c0-12.9 10.5-23.4 23.4-23.4h102.1c12.9 0 23.4 10.5 23.4 23.4v87.6c0 12.9-10.5 23.4-23.4 23.4zM560.5 486.1H458.4c-12.9 0-23.4-10.5-23.4-23.4v-87.6c0-12.9 10.5-23.4 23.4-23.4h102.1c12.9 0 23.4 10.5 23.4 23.4v87.6c0 12.9-10.5 23.4-23.4 23.4zM781 486.1H678.8c-12.9 0-23.4-10.5-23.4-23.4v-87.6c0-12.9 10.5-23.4 23.4-23.4H781c12.9 0 23.4 10.5 23.4 23.4v87.6c0 12.9-10.6 23.4-23.4 23.4zM340.1 263.1H238c-12.9 0-23.4-10.5-23.4-23.4v-87.6c0-12.9 10.5-23.4 23.4-23.4h102.1c12.9 0 23.4 10.5 23.4 23.4v87.6c0 12.9-10.5 23.4-23.4 23.4zM560.5 263.1H458.4c-12.9 0-23.4-10.5-23.4-23.4v-87.6c0-12.9 10.5-23.4 23.4-23.4h102.1c12.9 0 23.4 10.5 23.4 23.4v87.6c0 12.9-10.5 23.4-23.4 23.4zM781 263.1H678.8c-12.9 0-23.4-10.5-23.4-23.4v-87.6c0-12.9 10.5-23.4 23.4-23.4H781c12.9 0 23.4 10.5 23.4 23.4v87.6c0 12.9-10.6 23.4-23.4 23.4z"  horiz-adv-x="1024" />

    
    <glyph glyph-name="biaodanzujian-biaoge" unicode="&#60437;" d="M960 304.576V527.04c0 0.288 0.16 0.512 0.16 0.768S960 528.32 960 528.576V704a32 32 0 0 1-32 32H96a32 32 0 0 1-32-32v-175.424c0-0.288-0.16-0.512-0.16-0.768s0.16-0.48 0.16-0.768v-222.464c0-0.288-0.16-0.512-0.16-0.768s0.16-0.48 0.16-0.768V32a32 32 0 0 1 32-32h832a32 32 0 0 1 32 32v271.04c0 0.288 0.16 0.512 0.16 0.768S960 304.32 960 304.576z m-560 31.232v160H608v-160h-208z m208-64V64h-208v207.808H608z m-480 224h208v-160H128v160z m544 0h224v-160h-224v160zM896 672v-112.192H128V672h768zM128 271.808h208V64H128v207.808zM672 64v207.808h224V64h-224z"  horiz-adv-x="1024" />

    
    <glyph glyph-name="yanse" unicode="&#59000;" d="M204.4 371.1c-14.5-1.5-26.2-13.2-27.7-27.7-2.1-19.9 14.6-36.7 34.6-34.6 14.5 1.5 26.2 13.2 27.8 27.8 2 19.9-14.8 36.6-34.7 34.5zM265.4 422.3c21.8 1.9 39.4 19.5 41.4 41.4 2.5 28.5-21.2 52.3-49.7 49.7-21.8-1.9-39.4-19.5-41.4-41.4-2.6-28.4 21.2-52.2 49.7-49.7zM415.8 629.1c-28.5-1.8-51.6-24.9-53.4-53.4-2.2-34.5 26.4-63.1 60.9-60.9 28.5 1.8 51.6 24.9 53.4 53.4 2.1 34.6-26.4 63.1-60.9 60.9zM621.9 642.2c-35.1-2.2-63.4-30.6-65.6-65.6-2.7-42.4 32.4-77.6 74.8-74.8 35.1 2.2 63.4 30.6 65.6 65.6 2.8 42.4-32.3 77.5-74.8 74.8zM966.5 619.6c-0.5 7.6-4 14.6-9.8 19.6l-0.7 0.6c-5.2 4.5-11.9 7-18.8 7-8.3 0-16.2-3.6-21.6-9.9L574 243.6l-43.5-85.5 1.1-0.9-4.9-11.3 11.1 5.9 1.5-1.3 78 54.3 342.3 394c5 5.8 7.4 13.2 6.9 20.8zM897.8 419.7c-13.8 1.4-26.7-7.4-30.4-20.7-6.9-24.6-19.3-64.5-35.1-97.8C809.5 253 767.4 185.9 696.7 140c-72.2-46.9-142.7-56.7-189.2-56.7-37 0-72.2 6.1-101.7 17.7-26.9 10.5-46.4 24.6-54.9 39.7-3.4 6.1-7.2 12.9-11.2 20.2-17.2 31.1-36.6 66.5-49.7 77.4-15.9 13.2-39.1 15-59.8 15-8.1 0-40.8-1.3-48.5-1.3-33.1 0-49.4 6.5-56.1 22.4-17.8 42.3-7.3 114.3 26.8 183.4C205.2 564.6 300 642.7 412.6 672c40 10.6 81.2 18.9 121.3 18.9 85.6 0 187.8-32.8 252.5-77.2 11.4-7.8 26.9-5.8 35.7 4.9 10.4 12.6 7.1 31.4-6.8 39.8-23.3 14-57.9 34-86.3 47.1-60.3 27.9-123.7 41.9-189.2 41.9-68.1 0-148.8-16.4-217.2-47.2-78.1-35-135.2-85-179.4-147.5-36.4-51.4-67.8-111.1-80.1-168.7-7.5-35.1-6.8-57.4-2.4-87.8 4.2-29.2 13.4-52.5 26.9-67.5 22.4-25.1 51.5-37.4 89-37.4 13.9 0 56.3 5 63.1 5 7.4 0 12.2-1.2 14.4-3.8 6.4-7.4 14.4-22.4 23.7-39.9 7.5-14.1 15.9-30.1 25.4-45.3 12.1-19.5 36.9-40.4 66.5-55.9 27-14.1 71.9-31 132.2-31 72 0 148.3 23.6 226.7 70.1 74.9 44.4 123 118.9 150.2 173.6 19 38.3 34.7 87.2 43.8 119.1 4.8 17.3-7 34.7-24.8 36.5z"  horiz-adv-x="1024" />

    
    <glyph glyph-name="huakuai-" unicode="&#58886;" d="M944.7424 465.1008h-387.072v44.4416c0 47.3088-38.5024 86.016-86.016 86.016H261.5296c-47.3088 0-86.016-38.5024-86.016-86.016v-44.4416h-96.256C36.0448 465.1008 0.6144 429.8752 0.6144 386.4576c0-43.2128 35.2256-78.6432 78.6432-78.6432h96.4608v-49.5616c0-47.3088 38.5024-86.016 86.016-86.016h210.3296c47.3088 0 86.016 38.5024 86.016 86.016v49.5616h387.072c43.2128 0 78.6432 35.2256 78.6432 78.6432-0.4096 43.4176-35.6352 78.6432-79.0528 78.6432zM505.4464 258.4576c0-18.6368-15.1552-33.5872-33.5872-33.5872H261.5296c-18.6368 0-33.5872 15.1552-33.5872 33.5872v49.5616h0.2048v157.0816h-0.2048v44.4416c0 18.6368 15.1552 33.5872 33.5872 33.5872h210.3296c18.6368 0 33.5872-15.1552 33.5872-33.5872v-251.0848z"  horiz-adv-x="1024" />

    
    <glyph glyph-name="RectangleCopy" unicode="&#58913;" d="M174.08 506.88v-215.04h215.04V506.88H174.08z m0 40.96h215.04a40.96 40.96 0 0 0 40.96-40.96v-215.04a40.96 40.96 0 0 0-40.96-40.96H174.08a40.96 40.96 0 0 0-40.96 40.96V506.88a40.96 40.96 0 0 0 40.96 40.96zM573.44 506.88v-215.04h215.04V506.88H573.44z m0 40.96h215.04a40.96 40.96 0 0 0 40.96-40.96v-215.04a40.96 40.96 0 0 0-40.96-40.96H573.44a40.96 40.96 0 0 0-40.96 40.96V506.88a40.96 40.96 0 0 0 40.96 40.96zM696.90368 375.552l132.17792 132.18816a15.36 15.36 0 0 0 21.71904-21.72928L706.94912 342.15936a15.36 15.36 0 0 0-25.04704 4.94592L605.5936 423.424a15.36 15.36 0 0 0 21.72928 21.71904l69.5808-69.5808z"  horiz-adv-x="1024" />

    
    <glyph glyph-name="RectangleCopy1" unicode="&#58920;" d="M174.08 486.4v-307.2h665.6V486.4H174.08z m0 40.96h665.6a40.96 40.96 0 0 0 40.96-40.96v-307.2a40.96 40.96 0 0 0-40.96-40.96H174.08a40.96 40.96 0 0 0-40.96 40.96V486.4a40.96 40.96 0 0 0 40.96 40.96zM225.0752 373.71904h46.87872c10.17856 0 18.20672-2.43712 23.94112-7.31136 5.30432-4.58752 8.02816-10.752 8.02816-18.49344 0-5.7344-1.4336-10.60864-4.15744-14.62272-2.72384-3.72736-6.59456-6.4512-11.75552-8.45824 6.73792-1.29024 11.75552-4.01408 15.19616-8.17152 3.29728-4.01408 5.0176-9.60512 5.0176-16.4864 0-10.32192-3.584-17.92-10.60864-22.79424-6.02112-4.01408-14.62272-6.02112-25.51808-6.02112H225.0752v102.35904z m16.77312-13.76256v-29.24544h25.66144c7.168 0 12.1856 1.29024 15.19616 3.584 2.8672 2.43712 4.44416 6.30784 4.44416 11.61216 0 4.87424-1.57696 8.45824-4.44416 10.60864-3.15392 2.29376-8.02816 3.44064-14.90944 3.44064h-25.94816z m0-43.008v-31.82592h27.81184c6.30784 0 11.32544 1.00352 14.90944 3.01056 4.58752 2.58048 6.88128 6.59456 6.88128 12.32896 0 5.87776-1.72032 10.0352-5.0176 12.61568-3.44064 2.58048-8.88832 3.87072-16.34304 3.87072h-28.24192z m82.14528 56.77056h16.77312v-63.7952c0-8.88832 2.00704-15.33952 6.16448-19.64032 4.01408-4.15744 10.60864-6.30784 19.64032-6.30784 8.88832 0 15.48288 2.1504 19.64032 6.30784 4.01408 4.3008 6.16448 10.752 6.16448 19.64032v63.7952h16.77312v-63.50848c0-13.33248-3.72736-23.51104-11.18208-30.53568-7.45472-6.88128-17.92-10.32192-31.39584-10.32192-13.6192 0-24.08448 3.44064-31.25248 10.17856-7.59808 7.168-11.32544 17.34656-11.32544 30.67904v63.50848z m97.34144 0h83.8656v-14.336H471.6544V271.36h-16.77312v88.02304h-33.54624v14.336z m88.1664 0h83.8656v-14.336H559.8208V271.36h-16.77312v88.02304h-33.54624v14.336z m141.49632 2.00704c15.62624 0 27.9552-5.0176 36.98688-15.19616 8.6016-9.60512 12.9024-22.36416 12.9024-38.13376s-4.3008-28.38528-12.9024-37.9904c-9.03168-10.0352-21.36064-15.0528-36.98688-15.0528-15.7696 0-28.09856 5.16096-36.98688 15.19616-8.6016 9.74848-12.75904 22.36416-12.75904 37.84704 0 15.62624 4.15744 28.24192 12.75904 37.9904 8.88832 10.32192 21.21728 15.33952 36.98688 15.33952z m0-14.76608c-10.60864 0-18.78016-3.584-24.65792-10.752-5.59104-6.88128-8.31488-16.05632-8.31488-27.81184 0-11.61216 2.72384-20.7872 8.31488-27.66848 5.7344-7.02464 14.04928-10.60864 24.65792-10.60864 10.60864 0 18.78016 3.44064 24.51456 10.17856 5.59104 6.73792 8.45824 16.05632 8.45824 28.09856 0 12.04224-2.8672 21.504-8.45824 28.38528-5.7344 6.88128-13.90592 10.17856-24.51456 10.17856z m65.65888 12.75904h16.77312l50.60608-73.8304h0.57344v73.8304h16.91648V271.36h-16.34304l-51.17952 74.83392h-0.57344V271.36h-16.77312v102.35904z"  horiz-adv-x="1024" />

    


  </font>
</defs>
</svg>
