<?xml version="1.0" standalone="no"?>
<!DOCTYPE svg PUBLIC "-//W3C//DTD SVG 1.1//EN" "http://www.w3.org/Graphics/SVG/1.1/DTD/svg11.dtd" >
<!--
2013-9-30: Created.
-->
<svg>
<metadata>
Created by iconfont
</metadata>
<defs>

<font id="iconfont" horiz-adv-x="1024" >
  <font-face
    font-family="iconfont"
    font-weight="500"
    font-stretch="normal"
    units-per-em="1024"
    ascent="896"
    descent="-128"
  />
    <missing-glyph />
    
    <glyph glyph-name="shanchu" unicode="&#58880;" d="M205.799402 832.122157 84.136613 832.122157c-11.207709 0-20.27662-9.069563-20.27662-20.275789l0-121.656781c0-11.167341 9.068911-20.275789 20.27662-20.275789 11.188265 0 20.277643 9.108448 20.277643 20.275789l0 101.380992 101.385146 0c11.188265 0 20.27662 9.108448 20.27662 20.275789C226.074998 823.052594 216.986644 832.122157 205.799402 832.122157zM327.460144 791.569556l121.661765 0c11.168821 0 20.27662 9.108448 20.27662 20.275789 0 11.207249-9.107798 20.275789-20.27662 20.275789L327.460144 832.121134c-11.207709 0-20.27662-9.069563-20.27662-20.275789C307.183524 800.678004 316.252435 791.569556 327.460144 791.569556zM692.44544 832.122157 570.784698 832.122157c-11.207709 0-20.277643-9.069563-20.277643-20.275789 0-11.167341 9.069934-20.275789 20.277643-20.275789l121.661765 0c11.167798 0 20.275596 9.108448 20.275596 20.275789C712.72206 823.052594 703.614262 832.122157 692.44544 832.122157zM935.768971 832.122157 814.107206 832.122157c-11.207709 0-20.275596-9.069563-20.275596-20.275789 0-11.167341 9.067888-20.275789 20.275596-20.275789l101.385146 0 0-101.380992c0-11.167341 9.067888-20.275789 20.275596-20.275789 11.167798 0 20.27662 9.108448 20.27662 20.275789L956.044568 811.845345C956.045591 823.052594 946.936769 832.122157 935.768971 832.122157zM935.768971 588.808596c-11.207709 0-20.275596-9.069563-20.275596-20.275789l0-121.656781c0-11.168364 9.067888-20.275789 20.275596-20.275789 11.167798 0 20.27662 9.108448 20.27662 20.275789L956.045591 568.531783C956.045591 579.739033 946.936769 588.808596 935.768971 588.808596zM935.768971 345.495034c-11.207709 0-20.275596-9.069563-20.275596-20.277836l0-121.655757c0-11.167341 9.067888-20.276812 20.275596-20.276812 11.167798 0 20.27662 9.109472 20.27662 20.276812L956.045591 325.217199C956.045591 336.425472 946.936769 345.495034 935.768971 345.495034zM935.768971 102.18045c-11.207709 0-20.275596-9.067516-20.275596-20.274766l0-101.380992-101.385146 0c-11.207709 0-20.275596-9.067516-20.275596-20.274766 0-11.167341 9.067888-20.275789 20.275596-20.275789l121.661765 0c11.167798 0 20.27662 9.108448 20.27662 20.275789L956.046614 81.904661C956.045591 93.11191 946.936769 102.18045 935.768971 102.18045zM692.44544-19.476331 570.784698-19.476331c-11.207709 0-20.277643-9.067516-20.277643-20.274766 0-11.167341 9.069934-20.275789 20.277643-20.275789l121.661765 0c11.167798 0 20.275596 9.108448 20.275596 20.275789C712.72206-28.543847 703.614262-19.476331 692.44544-19.476331zM449.121909-19.476331 327.460144-19.476331c-11.207709 0-20.27662-9.067516-20.27662-20.274766 0-11.167341 9.068911-20.275789 20.27662-20.275789l121.661765 0c11.168821 0 20.27662 9.108448 20.27662 20.275789C469.398529-28.543847 460.290731-19.476331 449.121909-19.476331zM205.799402-19.476331l-101.385146 0 0 101.380992c0 11.207249-9.089378 20.274766-20.277643 20.274766-11.207709 0-20.27662-9.067516-20.27662-20.274766l0-121.656781c0-11.167341 9.068911-20.275789 20.27662-20.275789l121.662789 0c11.188265 0 20.27662 9.108448 20.27662 20.275789C226.074998-28.543847 216.986644-19.476331 205.799402-19.476331zM84.136613 183.284629c11.188265 0 20.277643 9.109472 20.277643 20.276812L104.414256 325.217199c0 11.208273-9.089378 20.277836-20.277643 20.277836-11.207709 0-20.27662-9.069563-20.27662-20.277836l0-121.655757C63.859993 192.394101 72.928904 183.284629 84.136613 183.284629zM84.136613 426.599214c11.188265 0 20.277643 9.108448 20.277643 20.275789L104.414256 568.531783c0 11.207249-9.089378 20.275789-20.277643 20.275789-11.207709 0-20.27662-9.069563-20.27662-20.275789l0-121.656781C63.859993 435.706639 72.928904 426.599214 84.136613 426.599214zM345.202954 345.495034l324.432057 0c22.375507 0 40.554263 18.176988 40.554263 40.551578 0 22.414499-18.178756 40.551578-40.554263 40.551578l-324.432057 0c-22.415417 0-40.55324-18.138102-40.55324-40.551578C304.648691 363.672022 322.787536 345.495034 345.202954 345.495034z"  horiz-adv-x="1024" />

    
    <glyph glyph-name="gantanhao" unicode="&#58883;" d="M512.000002-128c282.757922 0 511.978511 229.220588 511.978511 511.978511s-229.220588 511.978511-511.978511 511.978511-511.978511-229.220588-511.978511-511.978511S229.24208-128 512.000002-128zM585.140813 18.279574000000025l-146.279574 0 0 511.979534L585.140813 530.259108 585.140813 18.279574000000025zM458.861758 728.960613c14.092973 14.589276 30.478152 21.883403 49.13814 21.883403 22.855544 0 41.3385-7.294127 55.426357-21.883403 14.098089-14.589276 21.145599-31.603789 21.145599-51.061956 0-21.008476-7.234775-38.60525-21.715581-52.81181001-14.47568899-14.19735-31.801287-21.301142-51.999304-21.30114199-19.800975 0-36.9434 7.397481-51.424206 22.176069-14.475689 14.790868-21.715581 32.094976-21.715581 51.936883C437.716158 697.356824 444.772878 714.371336 458.861758 728.960613z"  horiz-adv-x="1024" />

    
    <glyph glyph-name="gongshi" unicode="&#59026;" d="M866.508571 119.169515M853.851297 344.280506c5.596462 5.597485 11.192923 11.193947 16.785292 11.193947l78.334089 0c5.592368 0 11.18883 5.590322 11.18883 11.186783l0 89.522919c0 5.593392-5.596462 11.189853-11.18883 11.189853L859.447758 467.374008c-5.596462 0-16.784268-5.596462-16.784268-11.189853l-95.119381-100.709703c-5.592368-5.596462-11.189853-5.596462-11.189853 0l-50.354851 100.709703c-5.597485 5.593392-11.189853 11.189853-16.785292 11.189853L523.738857 467.374008c-5.592368 0-11.18883-5.596462-11.18883-11.189853l0-89.522919c0-5.595438 5.596462-11.186783 11.18883-11.186783l89.522919 0c5.596462 0 11.192923-5.596462 16.784268-11.193947l33.571606-72.738651 0-16.784268-100.711749-117.496018c-5.596462 0-11.18883-5.592368-16.785292-5.592368l-78.329996 0c-5.596462 0-11.192923-5.597485-11.192923-11.192923l0-89.521896c0-5.592368 5.596462-11.189853 11.192923-11.189853l89.518826 0c5.596462 0 16.784268 5.597485 16.784268 11.189853l128.689964 145.474232c5.597485 5.597485 11.189853 5.597485 11.189853 0l72.736605-145.474232c0-5.592368 11.189853-11.189853 16.785292-11.189853l89.521896 0c5.597485 0 11.189853 5.597485 11.189853 11.189853l0 89.521896c0 5.596462-5.592368 11.192923-11.189853 11.192923L859.447758 131.6692c-5.596462 0-11.18883 5.592368-16.784268 11.18883l-55.95336 111.900579 0 16.784268L853.851297 344.280506 853.851297 344.280506zM395.052986 691.17926c-27.977191-22.382776-55.952336-55.95336-72.737628-111.901603l-27.972075-111.903649L132.081713 467.374008c-5.597485 0-11.189853-5.596462-11.189853-11.189853l0-89.522919c0-5.595438 5.591345-11.186783 11.189853-11.186783l134.281309 0L182.437587 19.763504c-16.785292-67.140143-61.545728-55.952336-61.545728-55.952336L64.940546-36.188832l0-111.900579 55.952336 0c44.760436 0 89.522919 5.592368 111.900579 33.570583 27.978215 27.974122 44.763506 78.329996 55.952336 134.282333l83.926458 335.710948 128.688941 0c5.593392 0 11.189853 5.590322 11.189853 11.186783l0 89.522919c0 5.593392-5.596462 11.189853-11.189853 11.189853l-100.710726 0 27.973098 106.308211c5.597485 16.785292 33.570583 44.759413 50.355875 55.952336 61.544705 44.759413 145.475256 16.785292 201.422476 5.591345L680.401919 730.346305C624.453676 741.534112 501.360174 780.70218 395.052986 691.17926L395.052986 691.17926zM395.052986 691.17926"  horiz-adv-x="1024" />

    
    <glyph glyph-name="quanping" unicode="&#59203;" d="M664.035 486.618l244.223 243.378-0.837-137.922c-0.335-11.437 8.912-21.527 20.351-21.191h14.63c11.438 0.335 21.025 7.065 21.193 18.67l0.672 205.367c0 0.171 0.335 10.934 0.335 10.934 0.17 5.716-1.179 10.934-4.879 14.63-3.7 3.702-8.742 6.055-14.633 5.886l-10.428-0.171c-0.169 0-0.331 0-0.501-0.171l-203.69 0.846c-11.438-0.336-21.025-9.76-21.193-21.361v-14.633c1.685-13.625 12.446-21.529 23.884-21.193l134.219-0.335-243.551-242.542c-11.101-11.104-11.101-29.095 0-40.197 11.104-11.269 29.101-11.269 40.203 0h-0.003M356.233 257.194l-244.393-242.544 0.842 137.253c0.336 11.435-8.918 21.523-20.355 21.193h-15.47c-11.438-0.335-21.025-7.065-21.193-18.672l-0.672-205.536c0-0.171-0.335-10.934-0.335-10.934-0.171-5.722 1.18-10.934 4.875-14.63 3.7-3.7 8.746-6.055 14.633-5.886l10.427 0.17c0.171 0 0.336 0 0.507 0.171l204.532-0.843c11.435 0.336 21.025 9.756 21.193 21.361v14.63c-1.683 13.625-12.451 21.529-23.887 21.193l-134.222 0.335 243.38 242.539c11.104 11.104 11.104 29.101 0 40.203-10.929 11.268-28.757 11.268-39.857-0.001v0M964.271-51.109l-0.507 205.536c-0.336 11.438-9.76 18.335-21.194 18.672h-14.629c-11.439 0.331-20.521-9.759-20.356-21.193l0.843-137.927-244.393 243.214c-11.104 11.104-29.099 11.104-40.203 0-11.097-11.101-11.097-29.099 0-40.203l243.386-242.538-134.22-0.335c-11.438 0.335-22.034-7.739-23.887-21.193v-14.633c0.335-11.437 9.76-21.025 21.193-21.361l203.69 0.843c0.17 0 0.335-0.17 0.507-0.17l10.428-0.171c5.716-0.17 10.934 2.016 14.63 5.886 3.698 3.7 5.042 8.912 4.875 14.63 0 0-0.169 10.764-0.169 10.934l0.004 0.002M152.885 769.355l134.22 0.335c11.435-0.335 22.031 7.739 23.883 21.193v14.636c-0.336 11.437-9.753 21.025-21.193 21.36l-204.694-0.842c-0.17 0-0.336 0.171-0.509 0.171l-10.426 0.169c-5.722 0.17-10.934-2.015-14.633-5.885-3.698-3.7-5.050-8.912-4.875-14.633 0 0 0.335-10.763 0.335-10.933l0.502-205.536c0.171-11.435 9.759-18.335 21.193-18.667h15.475c11.437-0.335 20.519 9.753 20.349 21.191l-0.671 137.248 244.224-242.709c11.097-11.104 29.094-11.104 40.196 0 11.104 11.101 11.104 29.099 0 40.203l-243.38 242.703M152.885 769.355v0z"  horiz-adv-x="1024" />

    
    <glyph glyph-name="weibiaoti2010103" unicode="&#58937;" d="M339.2 742.4c0 6.4-6.4 6.4-6.4 6.4L102.4 748.8c-6.4 0-6.4-6.4-6.4-6.4L96 512c0-6.4 6.4-6.4 6.4-6.4l230.4 0C339.2 505.6 339.2 512 339.2 512L339.2 742.4zM332.8 454.4 102.4 454.4C70.4 454.4 44.8 480 44.8 512L44.8 742.4c0 32 25.6 57.6 57.6 57.6l230.4 0c32 0 57.6-25.6 57.6-57.6L390.4 512C390.4 480 364.8 454.4 332.8 454.4zM339.2 256c0 6.4-6.4 6.4-6.4 6.4L102.4 262.4C102.4 262.4 96 256 96 256l0-230.4c0-6.4 6.4-6.4 6.4-6.4l230.4 0c6.4 0 6.4 6.4 6.4 6.4L339.2 256zM332.8-32 102.4-32c-32 0-57.6 25.6-57.6 57.6L44.8 256c0 32 25.6 57.6 57.6 57.6l230.4 0c32 0 57.6-25.6 57.6-57.6l0-230.4C390.4-6.4 364.8-32 332.8-32zM537.6 774.4l441.6 0 0-51.2L537.6 723.2 537.6 774.4zM537.6 556.8l441.6 0 0-51.2L537.6 505.6 537.6 556.8zM537.6 262.4l441.6 0 0-51.2L537.6 211.2 537.6 262.4zM537.6 19.2 537.6 64l441.6 0 0-51.2L537.6 12.8z"  horiz-adv-x="1024" />

    
    <glyph glyph-name="tupianliebiaoqiehuan" unicode="&#58935;" d="M390.4-32 160-32c-32 0-57.6 25.6-57.6 57.6L102.4 256c0 32 25.6 57.6 57.6 57.6l230.4 0C422.4 313.6 448 288 448 256l0-230.4C448-6.4 422.4-32 390.4-32M390.4 454.4 160 454.4C128 454.4 102.4 480 102.4 512L102.4 742.4c0 32 25.6 57.6 57.6 57.6l230.4 0C422.4 800 448 774.4 448 742.4L448 512C448 480 422.4 454.4 390.4 454.4zM396.8 256c0 6.4-6.4 6.4-6.4 6.4L160 262.4C153.6 262.4 153.6 256 153.6 256l0-230.4c0-6.4 6.4-6.4 6.4-6.4l230.4 0c6.4 0 6.4 6.4 6.4 6.4L396.8 256zM396.8 742.4c0 6.4-6.4 6.4-6.4 6.4L160 748.8c-6.4 0-6.4-6.4-6.4-6.4L153.6 512c0-6.4 6.4-6.4 6.4-6.4l230.4 0C390.4 505.6 396.8 512 396.8 512L396.8 742.4zM864-32 633.6-32c-32 0-57.6 25.6-57.6 57.6L576 256c0 32 25.6 57.6 57.6 57.6l230.4 0c32 0 57.6-25.6 57.6-57.6l0-230.4C921.6-6.4 896-32 864-32M864 454.4 633.6 454.4C601.6 454.4 576 480 576 512L576 742.4c0 32 25.6 57.6 57.6 57.6l230.4 0c32 0 57.6-25.6 57.6-57.6L921.6 512C921.6 480 896 454.4 864 454.4zM870.4 256c0 6.4-6.4 6.4-6.4 6.4L633.6 262.4C633.6 262.4 627.2 256 627.2 256l0-230.4c0-6.4 6.4-6.4 6.4-6.4l230.4 0c6.4 0 6.4 6.4 6.4 6.4L870.4 256zM870.4 742.4c0 6.4-6.4 6.4-6.4 6.4L633.6 748.8c-6.4 0-6.4-6.4-6.4-6.4L627.2 512c0-6.4 6.4-6.4 6.4-6.4l230.4 0c6.4 0 6.4 6.4 6.4 6.4L870.4 742.4z"  horiz-adv-x="1024" />

    
    <glyph glyph-name="720bianjiqi_quanxuan" unicode="&#58975;" d="M465.506 322.383c-13.744 0-26.662 5.35-36.37 15.062L228.17 538.429c-7.179 7.174-11.134 16.723-11.134 26.87 0 10.135 3.955 19.684 11.134 26.878 7.188 7.174 16.733 11.124 26.879 11.124 10.14 0 19.679-3.95 26.863-11.124l183.6-183.6L856.17 799.239c7.19 7.174 16.734 11.134 26.88 11.134s19.69-3.961 26.879-11.134c14.802-14.823 14.802-38.924 0-53.748L501.88 337.445c-9.712-9.713-22.63-15.062-36.374-15.062zM128.04 79.186c-16.473 0-31.964 6.413-43.607 18.057-11.654 11.654-18.074 27.14-18.074 43.613V766.608c0 16.462 6.425 31.948 18.08 43.602C96.086 821.854 111.566 828.28 128.04 828.28h433.79c20.955 0 38.009-17.049 38.009-38.003s-17.054-38.014-38.008-38.014H142.38v-597.059h570.863V430.477c0 21.182 17.238 38.426 38.427 38.426s38.43-17.244 38.43-38.426v-289.62c0-16.474-6.423-31.959-18.078-43.614-11.638-11.644-27.129-18.057-43.607-18.057H128.04zM319.99-64.957c-20.953 0-38.002 17.048-38.002 38.002s17.043 38.003 37.992 38.003l563.517 0.38V502.77c0 20.954 17.048 38.014 38.003 38.014 10.32 0 19.966-3.961 27.156-11.145 7.179-7.205 11.128-16.755 11.123-26.902l-0.52-512.817c-0.038-30.027-24.498-54.486-54.53-54.519l-584.738-0.358z"  horiz-adv-x="1024" />

    
    <glyph glyph-name="cancel-full-screen" unicode="&#59224;" d="M582.6 454.6v320h50v-234.6l274 274 35.4-35.4-274-274h234.6v-50h-320zM117.4-46l274 274v-234.6h50v320h-320v-50h234.6l-274-274 35.4-35.4zM132 764h302v50h-352v-352h50v302zM892 4h-302v-50h352v352h-50v-302z"  horiz-adv-x="1024" />

    
    <glyph glyph-name="wenjianjiazhankai" unicode="&#58894;" d="M302.797605 410.781406h537.919985v59.746308a119.560354 119.560354 0 0 1-119.537775 119.537774H482.126846a119.537774 119.537774 0 0 1-119.537774 119.537775H123.513523a119.560354 119.560354 0 0 1-119.537774-119.537775v-597.666292c0-15.241405 3.16118-29.692515 8.354548-43.082371l170.929533 341.904227c39.130896 59.497929 53.536846 119.560354 119.537775 119.560354z m597.688872-59.768887H362.589072c-66.023508 0-80.452038-60.062425-119.537774-119.537774L63.722056-67.347111c0-66.023508 53.536846-59.768887 119.537774-59.768888h537.919985c66.000928 0 80.429458-12.75762 119.537775 59.768888l179.284081 298.821856a119.515195 119.515195 0 0 1-119.515194 119.537774z"  horiz-adv-x="1024" />

    
    <glyph glyph-name="wenjianjiashouqi" unicode="&#58895;" d="M901.797398 591.645072H482.013848a119.944609 119.944609 0 0 1-119.944609 119.944608H122.202602A119.944609 119.944609 0 0 1 2.257993 591.645072v-599.700463c0-10.07065 1.625755-19.734862 3.974069-29.105535 0.587078-2.348313 1.422536-4.583727 2.099934-6.93204 2.461213-7.609438 5.509504-14.880176 9.370672-21.721896 0.699978-1.354796 1.354796-2.687012 2.122514-3.974069a120.034928 120.034928 0 0 1 42.382536-41.592238 118.883352 118.883352 0 0 1 59.994884-16.618831h779.594796a119.967189 119.967189 0 0 1 119.967189 119.944609V471.677883a120.012348 120.012348 0 0 1-119.967189 119.967189z m-779.594796 0c-17.567189 0-34.14086-3.996648-49.201676-10.770629a119.809129 119.809129 0 0 0 109.1514 70.742933h119.944609c44.25667 0 82.507078-24.250849 103.303197-59.972304H122.202602z"  horiz-adv-x="1024" />

    
    <glyph glyph-name="youxiang" unicode="&#58942;" d="M841.3 704.2H182.6C117.2 704.2 64 652 64 587.9v-407.2c0-64.2 53.2-116.3 118.6-116.3h658.7c65.4 0 118.6 52.2 118.6 116.3V587.9c0 64.1-53.2 116.3-118.6 116.3z m74.3-523.6c0-13-3.5-25.2-9.6-35.7l-184.4 165c-9 8.1-23.1 7.5-31.3-1.4-8.3-8.9-7.6-22.6 1.4-30.7L873.6 115c-9.8-4.7-20.7-7.3-32.3-7.3H182.6c-11.4 0-22.2 2.5-31.8 7l181.5 162.5c9 8.1 9.7 21.8 1.4 30.7-8.3 8.9-22.3 9.5-31.3 1.4L118.1 144.4c-6.3 10.7-9.8 23-9.8 36.2V587.9c0 14.3 4.2 27.6 11.5 38.9L310.9 474c9.5-7.6 23.5-6.2 31.2 3.1 7.7 9.3 6.3 23-3.2 30.6L154.3 655.3c8.7 3.5 18.3 5.5 28.3 5.5h658.7c10.2 0 19.9-2 28.8-5.7l-185-147.8c-9.5-7.6-10.9-21.3-3.2-30.6s21.7-10.7 31.2-3.1l191.2 152.9c7.1-11.2 11.3-24.4 11.3-38.5v-407.4zM562.5 469.2c6.3 0 11.2-5.3 10.7-11.4-4.8-54.6-7.1-83-7.1-85.2 0-22.9 6.7-34.3 20-34.3 12.4 0 22.6 6.6 30.7 19.9 8.1 13.2 12.1 30.5 12.1 51.7 0 31-10 56.4-30.1 76.1-20.1 19.7-47.8 29.5-83.3 29.5-34.6 0-63.2-11.9-85.9-35.6-22.7-23.7-34-53.4-34-89 0-34.9 10.6-62.9 31.9-84.2 21.2-21.3 50.2-31.9 86.8-31.9 22.2 0 42.2 2.9 59.7 8.7 6.9 2.3 14.1-2.8 14.1-10 0-4.4-2.8-8.4-7-9.9-19-6.7-42-10-69-10-42.6 0-77 12.6-103.2 37.7-26.2 25.1-39.3 58-39.3 98.6 0 42 13.7 76.9 41.2 104.7 27.5 27.8 62.7 41.7 105.6 41.7 40.1 0 73.2-11.6 99.3-34.7 26.1-23.1 39.1-53.2 39.1-90.3 0-27.6-7-50.2-21-67.7s-31.1-26.2-51.2-26.2c-25.7 0-38.6 13.3-38.9 40h-0.7c-8.7-26.7-25.3-40-49.8-40-15.9 0-28.9 5.7-38.8 17.2-9.9 11.5-14.9 27.1-14.9 46.9 0 25.9 6.8 47.5 20.5 64.6 13.7 17.1 31.3 25.7 52.8 25.7 8.5 0 16-2.1 22.5-6.3 6.6-4.2 10.7-9.4 12.4-15.7h0.7c0.1 0.3 0.4 3.6 0.9 9.8 0.5 5.4 5.1 9.6 10.7 9.6h2.5z m-96.4-87.9c0-12.9 2.8-23.2 8.4-31 5.6-7.8 13.5-11.7 23.8-11.7 14.2 0 25.4 7 33.6 20.9 8.2 13.9 12.3 32.3 12.3 55.2 0 24-10.3 36-30.9 36-14 0-25.3-6.7-34.1-20.1-8.7-13.4-13.1-29.9-13.1-49.3z"  horiz-adv-x="1024" />

    
    <glyph glyph-name="zhongzhimima1" unicode="&#58964;" d="M493.901992 273.663012a32.124747 32.124747 0 0 1-1.151883-8.383152v-31.036857a31.99676 31.99676 0 0 1 31.99676-32.508709 32.636696 32.636696 0 0 1 31.996761 32.508709v31.036857a33.916566 33.916566 0 0 1-1.08789 8.447145 63.993521 63.993521 0 1 1-61.753748 0z m293.986234 541.641158L841.514797 886.464965l101.813691-244.199274-262.757396 30.588902 68.665048 91.190767a447.954645 447.954645 0 1 1 196.780076-268.900773l59.833942 24.125557a511.948165 511.948165 0 1 0-217.961932 296.034026zM319.967603 384.051835c0 35.324423 28.157149 63.993521 63.993521 63.99352h281.571491c35.324423 0 63.993521-28.413123 63.99352-63.99352v-191.980562c0-35.324423-28.157149-63.993521-63.99352-63.993521H383.961124c-35.324423 0-63.993521 28.413123-63.993521 63.993521V384.051835z m76.792225 127.987041a127.987041 127.987041 0 1 0 255.974083 0v-63.993521h-255.974083V512.038876z m63.993521 0v-63.993521h127.987041V512.038876a63.993521 63.993521 0 0 1-127.987041 0z"  horiz-adv-x="1024" />

    
    <glyph glyph-name="xingbie" unicode="&#58923;" d="M370.667 362.494H515.324v-34H370.668v-180.507h-34V328.494H187v34h149.667v86.661C256.093 459.62 193.862 528.49 193.862 611.89c0 90.635 73.498 164.11 164.162 164.11 90.665 0 164.163-73.475 164.163-164.11 0-86.383-66.763-157.178-151.52-163.631v-85.765z m-12.643 122.523c70.092 0 126.913 56.803 126.913 126.873 0 70.07-56.821 126.872-126.913 126.872S231.112 681.959 231.112 611.89c0-70.07 56.82-126.873 126.912-126.873zM650.592 319.5V543.339l-136.65-134.592L489 435.406l180.667 185.608 167.816-187.607-29.376-24.66-123.515 134.591v-224.232c81.753-9.377 145.243-78.784 145.243-163.014 0-90.626-73.498-164.092-164.162-164.092-90.665 0-164.163 73.466-164.163 164.092 0 85.543 65.487 155.798 149.082 163.409z m15.08-292.741c71.46 0 129.39 57.904 129.39 129.333s-57.93 129.333-129.39 129.333c-71.458 0-129.388-57.904-129.388-129.333s57.93-129.333 129.389-129.333z"  horiz-adv-x="1024" />

    
    <glyph glyph-name="bumen" unicode="&#58961;" d="M384 646V762a70 70 0 0 1-70 70H134a70 70 0 0 1-70-70v-116a70 70 0 0 1 70-70h180a70 70 0 0 1 70 70z m-80 10H144v96h160zM890 192H710a70 70 0 0 1-70-70v-116a70 70 0 0 1 70-70h180a70 70 0 0 1 70 70V122a70 70 0 0 1-70 70z m-10-176H720v96h160zM890 512H710a70 70 0 0 1-70-70v-116a70 70 0 0 1 70-70h180a70 70 0 0 1 70 70V442a70 70 0 0 1-70 70z m-10-176H720v96h160zM536 392H264v80a40 40 0 0 1-40 40 40 40 0 0 1-40-40v-432a40 40 0 0 1 40-40h312a40 40 0 0 1 40 40 40 40 0 0 1-40 40H264V312h272a40 40 0 0 1 40 40 40 40 0 0 1-40 40z"  horiz-adv-x="1024" />

    
    <glyph glyph-name="chuku" unicode="&#58884;" d="M842.369507 815.471703h-82.127746v-44.877008h82.127746c20.938792 0 37.973227-17.035651 37.973227-37.974443v-696.943724c0-20.938792-17.034434-37.973227-37.973227-37.973227H180.595413c-20.938792 0-37.973227 17.034434-37.973227 37.973227V732.620252c0 20.938792 17.034434 37.974443 37.973227 37.974443h82.127746V815.471703H180.595413c-45.757617 0-82.850235-37.093834-82.850235-82.851451v-696.943724c0-45.757617 37.093834-82.851451 82.850235-82.851451h661.772877c45.757617 0 82.850235 37.093834 82.850235 82.851451V732.620252c0.001216 45.757617-37.092618 82.851451-82.849018 82.851451zM511.483068 689.873005l157.339548-157.339548-31.693414-31.693414-125.646134 125.647351-125.647351-125.647351-31.693413 31.693414zM261.240476 141.254748h500.485184v-44.821057H261.240476zM489.072539 664.9289h44.821058v-453.356785h-44.821058z"  horiz-adv-x="1024" />

    
    <glyph glyph-name="ruku" unicode="&#58886;" d="M842.885223 815.593334h-82.127746v-44.877008h82.127746c20.938792 0 37.973227-17.035651 37.973226-37.974443v-696.943724c0-20.938792-17.034434-37.973227-37.973226-37.973227H181.112345c-20.938792 0-37.973227 17.034434-37.973227 37.973227V732.743099c0 20.938792 17.034434 37.974443 37.973227 37.974444h82.127746V815.593334H181.112345c-45.757617 0-82.850235-37.093834-82.850235-82.851451v-696.943724c0-45.757617 37.093834-82.851451 82.850235-82.851451h661.772878c45.757617 0 82.850235 37.093834 82.850234 82.851451V732.743099c0 45.757617-37.092618 82.850235-82.850234 82.850235zM511.998784 211.693746L354.658019 369.033294l31.693414 31.693414 125.647351-125.646135 125.64735 125.646135 31.692198-31.693414zM261.757408 141.376379h500.485184v-44.821057H261.757408zM489.588255 689.995852h44.821057v-453.356785h-44.821057z"  horiz-adv-x="1024" />

    
    <glyph glyph-name="fuzhi" unicode="&#59049;" d="M965.485714 215.771429c0-21.942857-14.628571-36.571429-36.571428-36.571429h-131.657143v394.971429c0 51.2-43.885714 87.771429-87.771429 87.771428h-394.971428v131.657143c0 21.942857 14.628571 36.571429 36.571428 36.571429h577.828572c21.942857 0 36.571429-14.628571 36.571428-36.571429v-577.828571z m-263.314285-277.942858h-607.085715c-14.628571 0-21.942857 7.314286-21.942857 21.942858v607.085714c0 14.628571 7.314286 21.942857 21.942857 21.942857h607.085715c14.628571 0 21.942857-7.314286 21.942857-21.942857v-607.085714c0-7.314286-7.314286-21.942857-21.942857-21.942858z m219.428571 958.171429h-577.828571c-58.514286 0-109.714286-43.885714-109.714286-109.714286v-131.657143h-146.285714c-51.2 0-87.771429-43.885714-87.771429-87.771428v-607.085714c0-51.2 43.885714-87.771429 87.771429-87.771429h607.085714c51.2 0 87.771429 43.885714 87.771428 87.771429v146.285714h131.657143c58.514286 0 109.714286 51.2 109.714286 109.714286v577.828571c7.314286 58.514286-43.885714 102.4-102.4 102.4zM555.885714 215.771429h-307.2c-14.628571 0-36.571429-14.628571-36.571428-29.257143 0-21.942857 14.628571-36.571429 29.257143-36.571429h307.2c14.628571 0 36.571429 14.628571 36.571428 29.257143 7.314286 14.628571-7.314286 29.257143-29.257143 36.571429z m0 204.8h-307.2c-14.628571 0-36.571429-14.628571-36.571428-29.257143 0-21.942857 14.628571-36.571429 29.257143-36.571429h307.2c14.628571 0 36.571429 14.628571 36.571428 29.257143 7.314286 14.628571-7.314286 29.257143-29.257143 36.571429z"  horiz-adv-x="1031" />

    
    <glyph glyph-name="jian" unicode="&#58919;" d="M924.549 558.293c-22.553 53.321-54.833 101.202-95.943 142.312-41.11 41.11-88.991 73.39-142.313 95.943-55.221 23.357-113.861 35.2-174.293 35.2S392.928 819.905 337.707 796.549c-53.321-22.553-101.202-54.833-142.312-95.943-41.11-41.11-73.39-88.991-95.943-142.312-23.357-55.222-35.2-113.862-35.2-174.294s11.843-119.072 35.199-174.293c22.553-53.321 54.833-101.202 95.943-142.313 41.11-41.11 88.991-73.391 142.312-95.943 55.221-23.356 113.862-35.199 174.293-35.199s119.072 11.843 174.293 35.199c53.321 22.553 101.202 54.833 142.313 95.943s73.391 88.991 95.943 142.313c23.356 55.221 35.199 113.861 35.199 174.293s-11.842 119.072-35.198 174.293zM512-0.252c-211.877 0-384.252 172.375-384.252 384.252S300.123 768.252 512 768.252 896.252 595.877 896.252 384 723.877-0.252 512-0.252zM740 416H284c-15.464 0-28-14.327-28-32s12.536-32 28-32h456c15.464 0 28 14.327 28 32s-12.536 32-28 32z"  horiz-adv-x="1024" />

    
    <glyph glyph-name="daoru" unicode="&#58902;" d="M799.898-28.846h-578.96c-68.786 0-124.748 55.961-124.748 124.747v351.89c0 17.673 14.327 32 32 32 17.673 0 32-14.327 32-32v-351.89c0-33.496 27.251-60.747 60.748-60.747h578.961c33.497 0 60.748 27.251 60.748 60.747V674.862c0 33.496-27.251 60.748-60.748 60.748H523.666c-17.673 0-32 14.327-32 32 0 17.673 14.327 32 32 32h276.232c68.786 0 124.748-55.961 124.748-124.748v-578.961c0-68.786-55.961-124.747-124.748-124.747zM232.209 487.214l329.045-300.282 74.166 441.631-141.607-49.641 19.429-55.971 59.498 20.857-44.064-262.381-195.492 178.402 60.206 21.107-19.424 55.973zM64.76 827.039l84.603-47.608c1.292-0.729 130.455-74.128 178.97-153.607 34.432-56.405 44.308-97.202 47.131-116.502 0.823-5.632 0.909-8.687 0.91-8.739-0.006 0.27-0.003 0.406-0.003 0.406l43.63-10.768c-0.001 1.711-0.125 8.119-1.678 18.739-3.677 25.141-16.052 77.479-57.608 145.556-27.611 45.233-73.737 86.768-114.837 118.069 47.059-6.501 102.99-21.747 139.182-56.684 37.634-36.33 63.957-84.094 79.411-117.765 17.174-37.419 25.207-66.414 25.286-66.703l40.968 8.697c-1.475 5.435-37.13 134.095-124.015 217.967-37.48 36.183-92.526 59.666-163.61 69.796-51.345 7.317-91.998 4.784-93.704 4.673L64.76 827.039zM577.977 543.878l-18.993 56.121-83.291-27.893 18.993-56.121zM367.084 534.389l33.81 11.586 19.17-55.938-33.81-11.586z"  horiz-adv-x="1024" />

    
    <glyph glyph-name="daochu" unicode="&#58903;" d="M189.508-28.846h578.961c68.786 0 124.748 55.961 124.748 124.747v351.89c0 17.673-14.327 32-32 32-17.673 0-32-14.327-32-32v-351.89c0-33.496-27.251-60.747-60.748-60.747H189.508c-33.497 0-60.748 27.251-60.748 60.747V674.862c0 33.496 27.251 60.748 60.748 60.748H465.74c17.673 0 32 14.327 32 32 0 17.673-14.327 32-32 32H189.508c-68.786 0-124.748-55.961-124.748-124.748v-578.961c0-68.786 55.962-124.747 124.748-124.747zM777.422 423.9L960.3 830.096l-442.767-67.054 91.272-119.106 47.138 35.893-38.349 50.044 263.055 39.838-108.65-241.329-38.806 50.639-47.141-35.889zM506.643 158.95l18.893 95.222c0.29 1.455 29.815 147.053 90.233 217.906 42.878 50.285 78.57 72.375 96.031 81.068 5.095 2.536 7.972 3.569 8.021 3.586-0.255-0.09-0.385-0.129-0.385-0.129l-3.355 44.814c-1.626-0.534-7.676-2.647-17.284-7.43-22.746-11.324-68.628-39.382-120.378-100.072-34.385-40.324-59.49-97.092-76.435-145.896-8.477 46.744-11.408 104.641 10.521 149.914 22.803 47.076 59.995 86.965 87.179 112.137 30.21 27.973 55.261 44.636 55.511 44.802l-21.023 36.222c-4.706-3.095-115.864-77.043-168.508-185.728-22.711-46.885-27.883-106.508-15.372-177.211 9.036-51.07 24.104-88.913 24.741-90.499l31.61-78.706zM615.896 734.827l-47.415-35.525 52.444-70.463 47.416 35.526zM669.063 565.895l47.186 35.638 21.54-28.52-47.186-35.638z"  horiz-adv-x="1024" />

    
    <glyph glyph-name="gongshi_putong" unicode="&#58882;" d="M464.94756062 408.65744018l-192.43927002 243.8182068h195.18310547s68.70712281 5.4876709 93.45108033-30.13275148 32.98782349-90.41061401 32.98782349-90.41061401h24.74395751l-10.98770141 167.12677002H137.82552083v-24.65744018l241.8901062-295.87692261L137.82552083 96.34222411999997v-27.40127563h481.04873657l30.24398804 186.30889893-24.74395752 5.47531127s-8.24386597-41.09573364-41.23168946-79.44763184c-32.98782349-38.36425781-162.19528198-32.87658692-162.19528198-32.87658691H247.7766927L464.94756062 408.65744018z m316.7893982-25.41137695l-8.03375244 21.1720276c-5.87081909 14.95513916-9.05960083 23.05068969-9.57870484 24.26193237l-12.42141724 27.61138915c-8.81240844 19.77539063-17.26638794 29.68780518-25.38665771 29.68780518-12.2731018 0-21.93832398-11.45736695-29.00802612-34.33502198-5.19104004 1.89102173-7.78656006 4.6472168-7.78656006 8.26858521 0 10.6539917 6.21688843 22.87765503 18.6012268 36.63391114 12.43377685 13.76861573 23.58215333 20.64056396 33.42041016 20.64056396 19.29336548 0 39.26651001-27.69790649 60.00595093-83.10607911l5.28991699-13.65737914 5.96969604 9.52926635c36.78222656 58.15200805 67.76779175 87.2341919 92.96905518 87.2341919 6.56295776 0 14.25064087-1.89102173 23.06304932-5.67306519l-31.36871338-32.77770996c-4.15283203 1.19888305-7.09442138 1.8045044-8.82476807 1.8045044-18.984375 0-41.65191651-21.77764893-67.90374756-65.30822754l-7.50228881-12.54501343 5.92025756-15.84503174c22.71697998-62.47787476 41.38000489-93.71063232 56.16210938-93.71063232 13.54614258 0 23.86642456 9.65286255 30.98556518 28.90914917 4.83261109-3.1022644 7.24273682-6.27868653 7.24273682-9.5539856 0-8.61465454-6.89666748-18.93493653-20.71472167-30.97320556-13.8180542-12.03826904-25.70800781-18.08212281-35.74401856-18.08212281-20.03494263 0-40.49011231 28.14285278-61.37786865 84.40383912l-7.25509644 19.12033081-7.50228882-13.18771363c-35.22491455-60.22842407-68.90487671-90.3364563-101.02752685-90.3364563-12.0753479 0-22.34619141 3.00338745-30.81253052 8.96072388l30.03387451 29.2552185c5.19104004-5.1663208 11.2348938-7.73712158 18.1439209-7.73712157 19.49111938 0 41.4541626 19.67651367 65.77789306 59.02954101l13.47198487 21.72821045 5.19104004 8.57757568z"  horiz-adv-x="1024" />

    
    <glyph glyph-name="quanxuan" unicode="&#58922;" d="M102.4 593.92c5.12-5.12 15.36-10.24 25.6-10.24s15.36 5.12 25.6 10.24l174.08 174.08c5.12 5.12 10.24 15.36 10.24 25.6s-5.12 15.36-10.24 25.6c-20.48 5.12-40.96 5.12-51.2-10.24l-148.48-153.6-71.68 76.8C51.2 737.28 40.96 737.28 35.84 737.28c-10.24 0-15.36-5.12-25.6-10.24-5.12-5.12-10.24-10.24-10.24-20.48s5.12-15.36 10.24-25.6L102.4 593.92zM276.48 486.4l-148.48-153.6-71.68 71.68C51.2 409.6 40.96 414.72 35.84 414.72c-10.24 0-15.36-5.12-25.6-10.24-5.12-10.24-10.24-15.36-10.24-25.6s5.12-15.36 10.24-25.6L102.4 266.24c5.12-5.12 15.36-10.24 25.6-10.24s15.36 5.12 25.6 10.24L322.56 435.2c5.12 5.12 10.24 15.36 10.24 25.6s-5.12 15.36-10.24 25.6c-10.24 10.24-30.72 10.24-46.08 0z m0-327.68l-148.48-153.6L56.32 76.8c-5.12 5.12-15.36 10.24-25.6 10.24s-15.36-5.12-25.6-10.24c0-5.12-5.12-15.36-5.12-25.6s5.12-15.36 10.24-25.6L102.4-61.44c5.12-5.12 15.36-10.24 25.6-10.24h5.12c10.24 0 15.36 5.12 25.6 10.24l174.08 174.08c5.12 5.12 10.24 15.36 10.24 25.6s-5.12 15.36-10.24 25.6c-25.6 5.12-40.96 5.12-56.32-5.12zM1024 742.4c0-30.72-25.6-56.32-56.32-56.32h-460.8c-30.72 0-61.44 25.6-61.44 56.32 0 30.72 25.6 56.32 56.32 56.32h455.68c35.84 5.12 66.56-20.48 66.56-56.32z m0-358.4c0-30.72-25.6-56.32-56.32-56.32h-460.8c-30.72 0-56.32 25.6-56.32 56.32s25.6 56.32 56.32 56.32h455.68c35.84 0 61.44-25.6 61.44-56.32z m-5.12-358.4c0-30.72-25.6-56.32-56.32-56.32h-460.8c-30.72 0-56.32 25.6-56.32 56.32 0 30.72 25.6 56.32 56.32 56.32h455.68c35.84 0 61.44-25.6 61.44-56.32z m0 0"  horiz-adv-x="1024" />

    
    <glyph glyph-name="liebiao" unicode="&#58890;" d="M834.4 609.1c0-14.1-11.4-25.6-25.6-25.6H215.1c-14.1 0-25.6 11.4-25.6 25.6 0 14.1 11.4 25.6 25.6 25.6h593.7c14.2 0 25.6-11.4 25.6-25.6zM834.4 384c0-14.1-11.4-25.6-25.6-25.6H215.1c-14.1 0-25.6 11.4-25.6 25.6 0 14.1 11.4 25.6 25.6 25.6h593.7c14.2 0 25.6-11.5 25.6-25.6zM834.4 158.9c0-14.1-11.4-25.6-25.6-25.6H215.1c-14.1 0-25.6 11.4-25.6 25.6 0 14.1 11.4 25.6 25.6 25.6h593.7c14.2-0.1 25.6-11.5 25.6-25.6z"  horiz-adv-x="1024" />

    
    <glyph glyph-name="gouwuche" unicode="&#58881;" d="M908.629 152.235H257.877c-19.2853 0-37.376 7.50933-50.8587 21.1627-13.4827 13.6533-20.992 31.5733-20.8213 50.8587l2.38933 479.232c0 19.1147-6.656 31.9147-39.7653 37.2053h-0.170666l-95.5733 16.384c-9.216 1.536-15.5307 10.4107-13.9947 19.6267 1.536 9.216 10.4107 15.5307 19.6267 13.9947l95.4027-16.384c45.3973-7.168 68.4373-31.0613 68.4373-70.9973L220.16 223.91499999999996c0-10.0693 3.75467-19.456 10.9227-26.4533 7.168-7.168 16.5547-11.0933 26.624-11.0933h650.752c9.38667 0 17.0667-7.68 17.0667-17.0667s-7.50933-17.0667-16.896-17.0667ZM859.989 250.197l-602.624 1.87733c-18.944 0.170667-36.6933 7.50933-50.0053 20.992-13.312 13.4827-20.48 31.232-20.48 50.176l1.87733 353.963L870.571 626.347c30.8907-1.19467 55.1253-26.2827 55.1253-57.1733V315.73299999999995c0-36.1813-29.5253-65.536-65.7067-65.536ZM257.707 286.20799999999997l602.453-1.87733c17.408 0 31.5733 14.1653 31.5733 31.4027V569.173c0 12.4587-9.89867 22.6987-22.3573 23.04h-0.682667l-645.632 48.128-1.536-317.44c0-9.728 3.75467-18.944 10.5813-25.9413 6.48533-6.82667 15.7013-10.752 25.6-10.752ZM324.096 95.91499999999996m-63.6587 0a63.6587 63.6587 0 1 1 127.317 0 63.6587 63.6587 0 1 1-127.317 0ZM324.096 15.188999999999965c-44.544 0-80.7253 36.1813-80.7253 80.7253s36.1813 80.7253 80.7253 80.7253c44.544 0 80.7253-36.1813 80.7253-80.7253s-36.1813-80.7253-80.7253-80.7253Zm0 127.317c-25.7707 0-46.592-20.8213-46.592-46.592s20.8213-46.592 46.592-46.592 46.592 20.8213 46.592 46.592-20.8213 46.592-46.592 46.592ZM812.715 95.91499999999996m-63.6587 0a63.6587 63.6587 0 1 1 127.317 0 63.6587 63.6587 0 1 1-127.317 0ZM812.715 15.188999999999965c-44.544 0-80.7253 36.1813-80.7253 80.7253s36.1813 80.7253 80.7253 80.7253 80.7253-36.1813 80.7253-80.7253-36.1813-80.7253-80.7253-80.7253Zm0 127.317c-25.7707 0-46.592-20.8213-46.592-46.592s20.8213-46.592 46.592-46.592 46.592 20.8213 46.592 46.592-20.8213 46.592-46.592 46.592ZM710.315 478.037H362.496c-9.38667 0-17.0667 7.68-17.0667 17.0667s7.68 17.0667 17.0667 17.0667h347.819c9.38667 0 17.0667-7.68 17.0667-17.0667s-7.68-17.0667-17.0667-17.0667ZM710.315 379.904H362.496c-9.38667 0-17.0667 7.68-17.0667 17.0667s7.68 17.0667 17.0667 17.0667h347.819c9.38667 0 17.0667-7.68 17.0667-17.0667s-7.68-17.0667-17.0667-17.0667Z"  horiz-adv-x="1024" />

    
    <glyph glyph-name="saoma" unicode="&#59025;" d="M590.716433 343.142595m-317.105483 0a317.105482 317.105482 0 1 1 634.210965 0 317.105482 317.105482 0 1 1-634.210965 0ZM23.264517 793.766175v-534.072391h684.280251V793.766175H23.264517zM390.439286 243.004022H6.574755V810.455937h717.659775v-250.346433h-33.379524V777.076413H39.954279v-500.692867h350.485007v-33.379524zM273.61095 793.766175h183.587385v-100.138573H273.61095zM473.888097 676.93784h-216.750159V810.455937h216.750159zM290.300713 710.317364H440.725323v66.759049H290.300713zM73.333804 343.142595h33.379524v-33.379524h-33.379524zM140.092853 343.142595h33.379524v-33.379524h-33.379524zM206.851902 343.142595h33.379524v-33.379524h-33.379524zM706.742793 220.317505l22.910491 24.268793 105.022677-99.141523-22.910491-24.276018zM407.129048 360.049107a183.876385 183.804135 0 1 1 367.75277 0 183.876385 183.804135 0 1 1-367.75277 0ZM591.005433 159.555211a200.493897 200.493897 0 1 0 200.566147 200.493896 200.710647 200.710647 0 0 0-200.566147-200.493896z m0 367.608269a167.114372 167.114372 0 1 1 167.186622-167.114373A167.331123 167.331123 0 0 1 591.005433 527.09123zM890.265152 72.349397a45.228533 45.228533 0 0 0-63.941297 0l-75.356805 69.360051a45.228533 45.228533 0 0 0 0 64.013546 45.228533 45.228533 0 0 0 63.941297 0l75.356805-69.36005a45.228533 45.228533 0 0 0 0-64.013547zM858.330629 42.726875a61.701545 61.701545 0 0 0-43.783532 18.062513l-74.851055 68.926551a61.918295 61.918295 0 1 0 86.700063 88.072814l74.851055-68.92655a61.918295 61.918295 0 0 0-43.350032-106.135328z m20.157764 41.688281l11.776759-11.776759-11.776759 11.776759a28.900021 28.900021 0 0 1 0 40.387779l-74.851054 68.926551a28.900021 28.900021 0 0 1-40.82128 0.4335 28.538771 28.538771 0 0 1 0-40.38778l74.851055-68.92655a28.900021 28.900021 0 0 1 40.821279-0.4335zM490.577859 426.591406h33.379525v-133.518098H490.577859zM540.647146 426.591406h33.379524v-133.518098h-33.379524zM607.406195 426.591406h33.379524v-133.518098h-33.379524zM657.475482 426.591406h33.379524v-133.518098H657.475482zM977.976716 185.99873l-30.417272 13.79976A392.245537 392.245537 0 0 1 780.300572 703.453609l16.111761 28.900021a425.769562 425.769562 0 0 0 181.564383-546.3549zM591.294433-63.119452a425.336062 425.336062 0 0 0-376.928526 231.200169l29.694772 15.244761a390.656036 390.656036 0 0 1 506.761871-178.457631l13.58301-30.489522a425.119311 425.119311 0 0 0-173.111127-37.497777z"  horiz-adv-x="1024" />

    
    <glyph glyph-name="saomaqiang" unicode="&#58899;" d="M922.6 267.1c-3.8 7.6-11.8 23.5-167.1 159.2-76.3 66.7-154.6 132.8-164.2 140.2-10.2 7.9-13.3 12.1-14.1 13.5 17.1 55.4 15 93.6-6.3 117-18.8 20.6-48.4 26.3-90.4 17.3-47.8-10.2-148-62.6-188.9-84.7-74.6-40.3-144-82.6-168.9-102.9-23.1-18.9-35.1-40.4-35.8-64-0.1-3.8 0.1-7.6 0.6-11.3 3-21.9 15.2-36.1 17.7-38.8l0.3-0.3c34.7-36 75.7-55.5 118.5-56.5 34.4-0.8 60.1 10.7 67.2 14.3 2.8 1.4 5.4 3.1 7.8 5.2 31.3 26.8 62.3 38.2 92.4 33.9 55.5-8 96.1-66.6 103.6-78.3 5.4-8.4 14.2-14.2 24.1-16 147.8-26.3 173.4-98 179.1-171.5 3.3-42.6 24.1-65 41.1-76.3 16.8-11.2 39-17.4 62.5-17.4 12 0 23.9 1.7 32.8 4.6 32.4 10.5 74.1 68.4 86.2 85.9 23.4 33.8 19.2 92.2 1.8 126.9z m-795.5 158c3.9 3.9 8.7 8.9 14.3 14.7 19.5 20.2 48.9 50.6 75.4 72.7 49.3 41.2 85.6 52.6 107.5 54.9 23.5 2.5 36.3-4.5 38.5-6.5l0.6-0.6c2.5-2.4 5-4.9 5.1-9.9 0.1-6.8-4.4-22.8-35.1-53.9-30.1-30.4-124.1-94.5-147-108.7-14.6 5.7-40.8 21.8-59.3 37.3z m777.3-273.7c-23.6-34.3-56.2-71.8-75.9-78.2-7-2.3-16.7-3.6-26.6-3.6-11.4 0-33.2 1.8-51.4 14-13.2 8.9-29.6 26.7-32.2 61.3-2.6 33.2-9.4 76.2-39.9 113.2-31.7 38.4-82.5 63.4-155.6 76.5-4.4 0.8-8.4 3.4-10.8 7.2-8.4 12.9-53.5 78-117.6 87.2-5.1 0.7-10.3 1.1-15.5 1.1-30.9 0-62.1-13.3-92.8-39.6-1.2-1-2.4-1.8-3.7-2.5-6-3-28.1-12.8-57.8-12.2-5.9 0.1-11.8 0.7-17.6 1.6 34.1 22.3 112.3 76.6 140.5 105.1 27.7 28 41.1 50.3 40.9 68.1-0.1 13.4-7.6 20.6-11.1 24.1l-0.5 0.5c-6.1 6-24.3 15.3-54.1 12.2-35.9-3.7-75.8-23.7-118.7-59.5-27.2-22.8-57.1-53.7-76.9-74.1-5.7-5.9-10.9-11.3-14.9-15.3-2 4.3-3.9 9.6-4.7 15.7-0.4 2.7-0.5 5.4-0.4 8.1 0.5 17.5 10 34 28.4 49.1 23.6 19.3 93.3 61.7 165.7 100.8 83.6 45.2 152.2 76.1 183.6 82.8 34.5 7.3 57.8 3.6 71.4-11.3 16.2-17.7 16.7-49.9 1.7-98.3-3.3-10.5 2.7-20.2 21.2-34.5 9.4-7.3 87.2-73 163.3-139.4 101.1-88.3 155.7-139.8 162.4-153.1 14.5-29.3 17.9-80.4-0.4-107z"  horiz-adv-x="1024" />

    


  </font>
</defs>
</svg>
